[惊悚] 来电惊魂/夺命电话 When.A.Stranger.Calls.2006.1080p.BluRay.x264.DTS-FGT 7.26GB

[复制链接]
蓝鸟VIP会员 永久VIP 发表于 2019-10-6 20:33:29 | 显示全部楼层 |阅读模式 打印 上一主题 下一主题

马上注册,轻松下载,海量资源,让你轻松玩转社区。

您需要 登录 才可以下载或查看,没有帐号?立即注册

x


译  名 来电惊魂 / 夺命电话(台) / 惊呼狂叫 / 陌生来电
片  名 When a Stranger Calls
年  代 2006
产  地 美国
类  别 惊悚 / 恐怖
语  言 英语
上映日期 2006-02-03
IMDb评分  5.1/10 from 40672 users
IMDb链接  http://www.imdb.com/title/tt0455857
豆瓣评分 6.0/10 from 10298 users
豆瓣链接 https://movie.douban.com/subject/1461348/
片  长 87 分钟
导  演 Simon West
编  剧 Jake Wade Wall
主  演 Camilla Belle
       Katie Cassidy
       Brian Geraghty
       Molly Bryant
       David Denman
       Tommy Flanagan


标  签 惊悚 | 美国 | 恐怖 | 悬疑 | 美国电影 | 2006 | 来电惊魂 | 卡米拉·贝尔

简  介  

  居住在埃兰谷的姬尔·强森(凯米拉·贝尔 Camilla Belle 饰)是一个普普通通女高中生,由于她煲电话粥过长,因此父亲本(克拉克·格莱格 Clark Gregg 饰)命令她当保姆赚取花费。万般无奈,姬尔只得应征来到曼卓基斯医生(Derek de Lint 饰)的家中。曼卓基斯及其夫人凯丽(Kate Jennings Grant 饰)住在一幢豪华的湖畔别墅中,屋内的装饰奢侈高贵,令姬尔目不暇接。她当晚的工作很简单,就是在曼卓基斯夫妇外出用餐时留下看家,并照顾他们两个正在生病的孩子。不久夜色降临,偌大的别墅内显得空空荡荡,冷清吊诡。正在此时,一通通神秘的电话接连打了进来,令姬尔变得恐慌与不安……
  本片为1979年同名影片的翻拍之作。


该资源信息参数
  1. Video
  2. ID                                       : 1
  3. Format                                   : AVC
  4. Format/Info                              : Advanced Video Codec
  5. Format profile                           : High@L4
  6. Format settings                          : CABAC / 4 Ref Frames
  7. Format settings, CABAC                   : Yes
  8. Format settings, Reference frames        : 4 frames
  9. Codec ID                                 : V_MPEG4/ISO/AVC
  10. Duration                                 : 1 h 26 min
  11. Bit rate                                 : 11.5 Mb/s
  12. Width                                    : 1 920 pixels
  13. Height                                   : 800 pixels
  14. Display aspect ratio                     : 2.40:1
  15. Frame rate mode                          : Constant
  16. Frame rate                               : 23.976 (24000/1001) FPS
  17. Color space                              : YUV
  18. Chroma subsampling                       : 4:2:0
  19. Bit depth                                : 8 bits
  20. Scan type                                : Progressive
  21. Bits/(Pixel*Frame)                       : 0.312
  22. Stream size                              : 6.99 GiB (96%)
  23. Title                                    : When.A.Stranger.Calls.2006.1080p.BluRay.x264.DTS-FGT
  24. Writing library                          : x264 core 148 r2795M aaa9aa8
  25. Encoding settings                        : cabac=1 / ref=4 / deblock=1:-2:-2 / analyse=0x3:0x113 / me=umh / subme=9 / psy=1 / psy_rd=1.00:0.15 / mixed_ref=1 / me_range=16 / chroma_me=1 / trellis=2 / 8x8dct=1 / cqm=0 / deadzone=21,11 / fast_pskip=1 / chroma_qp_offset=-3 / threads=72 / lookahead_threads=3 / sliced_threads=0 / nr=0 / decimate=1 / interlaced=0 / bluray_compat=0 / constrained_intra=0 / bframes=3 / b_pyramid=2 / b_adapt=1 / b_bias=0 / direct=3 / weightb=1 / open_gop=0 / weightp=2 / keyint=250 / keyint_min=25 / scenecut=40 / intra_refresh=0 / rc_lookahead=50 / rc=2pass / mbtree=1 / bitrate=11500 / ratetol=1.0 / qcomp=0.60 / qpmin=0 / qpmax=69 / qpstep=4 / cplxblur=20.0 / qblur=0.5 / vbv_maxrate=31250 / vbv_bufsize=31250 / nal_hrd=none / filler=0 / ip_ratio=1.40 / aq=1:1.00
  26. Language                                 : English
  27. Default                                  : Yes
  28. Forced                                   : No

  29. Audio
  30. ID                                       : 2
  31. Format                                   : AC-3
  32. Format/Info                              : Audio Coding 3
  33. Commercial name                          : Dolby Digital
  34. Codec ID                                 : A_AC3
  35. Duration                                 : 1 h 26 min
  36. Bit rate mode                            : Constant
  37. Bit rate                                 : 448 kb/s
  38. Channel(s)                               : 6 channels
  39. Channel layout                           : L R C LFE Ls Rs
  40. Sampling rate                            : 48.0 kHz
  41. Frame rate                               : 31.250 FPS (1536 SPF)
  42. Bit depth                                : 16 bits
  43. Compression mode                         : Lossy
  44. Stream size                              : 279 MiB (4%)
  45. Title                                    : When.A.Stranger.Calls.2006.1080p.BluRay.x264.DTS-FGT
  46. Language                                 : English
  47. Service kind                             : Complete Main
  48. Default                                  : Yes
  49. Forced                                   : No

  50. Text
  51. ID                                       : 3
  52. Format                                   : UTF-8
  53. Codec ID                                 : S_TEXT/UTF8
  54. Codec ID/Info                            : UTF-8 Plain Text
  55. Duration                                 : 1 h 23 min
  56. Bit rate                                 : 27 b/s
  57. Count of elements                        : 521
  58. Stream size                              : 17.0 KiB (0%)
  59. Language                                 : English
  60. Default                                  : Yes
  61. Forced                                   : No

  62. Menu
  63. 00:00:00.000                             : en:Chapter 1
  64. 00:16:11.053                             : en:Chapter 2
  65. 00:41:30.738                             : en:Chapter 3
  66. 00:53:51.186                             : en:Chapter 4
复制代码


精彩剧照




蓝光高清网提示您 点击下方附件名称 马上开始下载



温馨提示:
本站资源优先使用迅雷下载,迅雷会员下载,速度基本可以跑满宽带
如果遇到无资源或者版权问题无法下载,推荐使用115网盘离线下载(点击查看115网盘离线下载教程


  • 该资源需要您回复以后 刷新网页进行下载操作

  • 1、When.A.Stranger.Calls.2006.1080p.BluRay.x264.DTS-FGT.torrent 37KB 已下载 0 次

加入蓝光高清网VIP会员  无限制下载本站所有资源---点此加入

资源下载、资源播放、字幕使用、无法下载等常见问题---点这里

回复

使用道具 举报

精彩评论40

huoqingfu 发表于 2019-10-6 22:40:49 | 显示全部楼层
好网站 希望越来越好

加入蓝光高清网VIP会员  无限制下载本站所有资源---点此加入

资源下载、资源播放、字幕使用、无法下载等常见问题---点这里

回复

使用道具 举报

jdcgzb 发表于 2019-10-6 22:55:58 | 显示全部楼层
不错,支持下楼主

加入蓝光高清网VIP会员  无限制下载本站所有资源---点此加入

资源下载、资源播放、字幕使用、无法下载等常见问题---点这里

回复

使用道具 举报

15273963586 发表于 2019-10-7 00:26:26 来自手机 | 显示全部楼层
666666666666666

加入蓝光高清网VIP会员  无限制下载本站所有资源---点此加入

资源下载、资源播放、字幕使用、无法下载等常见问题---点这里

回复

使用道具 举报

非洲爱燕 发表于 2019-10-7 06:35:37 | 显示全部楼层
不管怎么说就是支持,感谢版主的无私付出

加入蓝光高清网VIP会员  无限制下载本站所有资源---点此加入

资源下载、资源播放、字幕使用、无法下载等常见问题---点这里

回复

使用道具 举报

herohchn 发表于 2019-10-7 06:50:48 | 显示全部楼层
楼主,大恩不言谢了!

加入蓝光高清网VIP会员  无限制下载本站所有资源---点此加入

资源下载、资源播放、字幕使用、无法下载等常见问题---点这里

回复

使用道具 举报

宝力豪 发表于 2019-10-7 07:46:31 | 显示全部楼层
谢谢版主 希望坚持下去 好资源

加入蓝光高清网VIP会员  无限制下载本站所有资源---点此加入

资源下载、资源播放、字幕使用、无法下载等常见问题---点这里

回复

使用道具 举报

bracez 发表于 2019-10-7 08:42:23 | 显示全部楼层
楼主幸苦了

加入蓝光高清网VIP会员  无限制下载本站所有资源---点此加入

资源下载、资源播放、字幕使用、无法下载等常见问题---点这里

回复

使用道具 举报

【非花非雾】 发表于 2019-10-7 09:17:44 | 显示全部楼层
谢谢分享

加入蓝光高清网VIP会员  无限制下载本站所有资源---点此加入

资源下载、资源播放、字幕使用、无法下载等常见问题---点这里

回复

使用道具 举报

掌猪 发表于 2019-10-7 10:08:37 | 显示全部楼层
楼主幸苦了

加入蓝光高清网VIP会员  无限制下载本站所有资源---点此加入

资源下载、资源播放、字幕使用、无法下载等常见问题---点这里

回复

使用道具 举报

懒得打字嘛,点击右侧快捷回复
高级模式
B Color Image Link Quote Code Smilies 上传

本版积分规则

关注0

粉丝0

帖子68439

发布主题
最新电影 论坛
广告位
联系我们
点击这里联系客服

服务时间:
周一到周日8:00-23:30

  • 打开微信扫一扫
    关注公众号

  • 手机QQ扫一扫
    添加客服

Archiver手机版蓝光高清网 ( 渝ICP备18006373号-2 )|网站地图

Powered by Discuz! X3.4  © 2001-2013 Comsenz Inc.