倒带/回放
1080p
4.1
  • 年代: 2012年
  • 国家/地区: 美国 
  • 类型: 惊悚 恐怖 
  • 导演: 迈克尔·A·尼克尔斯
  • 音轨: DTS-HD.MA 5.1 
  • 时长: 98分钟
  • 主演:约翰尼·帕卡 / Ambyr Childers / 克里斯蒂安·史莱特 / 乔纳森·凯兹
特别声明:本站提供的所有高清电影作品均是在网上搜集,任何涉及商业盈利目的均不得使用,否则产生的一切后果将由您自己承担!本站将不对本站的任何内容负任何法律责任!该下载内容仅做宽带测试使用,请在下载后24小时内删除。请购买正版! 本站所有资源均由网上收集而来,版权归原影音公司所有,如果侵犯了你的权益,请通知我们,我们会及时删除侵权内容.

倒带/回放 Playback.2012.1080p.BluRay.x264.DTS-FGT 6.55GB

[复制链接]
MYadminwl*#VIP会员 年费VIP会员 发表于 2019-10-8 18:18:31 | 显示全部楼层 |阅读模式 打印 上一主题 下一主题

马上注册,轻松下载,海量资源,让你轻松玩转社区。

您需要 登录 才可以下载或查看,没有帐号?立即注册

x
标  签 恐怖 | 惊悚 | 美国 | 美国电影 | 2012 | 恐怖片 | 血腥 | 青春

简  介 
 

  1994年10月的一天,男子哈兰·迪赫(Luke Bonczyk 饰)残忍杀害家人,只有一名婴儿幸免于难,该事件在当地引发不小的轰动。15年后,高中生朱利安·米勒(约翰尼·派克 Johnny Pacar 饰)计划拍一部恐怖片,他找来女友赖莉(艾比尔·切得尔斯 Ambyr Childers 饰)以及布兰娜(Alessandra Torresani 饰)、蒂蒂(Jennifer Missoni 饰)、内特(Jonathan Keltz 饰)等朋友帮忙出演角色。此外,他还拜托在TV工作室任职的朋友奎恩(托比·海明威 Toby Hemingway 饰)寻找当年的新闻影像资料。奎恩找到资料录影带,但是在观看之后他的性情大变。
  胆大妄为的年轻人试图触摸这个小镇上的禁忌题材,却没想到开启了释放恶魔和灾难的大门……


影片参数
  1. Video
  2. ID                                       : 1
  3. Format                                   : AVC
  4. Format/Info                              : Advanced Video Codec
  5. Format profile                           : High@L4
  6. Format settings                          : CABAC / 4 Ref Frames
  7. Format settings, CABAC                   : Yes
  8. Format settings, Reference frames        : 4 frames
  9. Codec ID                                 : V_MPEG4/ISO/AVC
  10. Duration                                 : 1 h 38 min
  11. Bit rate                                 : 8 012 kb/s
  12. Width                                    : 1 920 pixels
  13. Height                                   : 1 080 pixels
  14. Display aspect ratio                     : 16:9
  15. Frame rate mode                          : Constant
  16. Frame rate                               : 23.976 FPS
  17. Color space                              : YUV
  18. Chroma subsampling                       : 4:2:0
  19. Bit depth                                : 8 bits
  20. Scan type                                : Progressive
  21. Bits/(Pixel*Frame)                       : 0.161
  22. Stream size                              : 5.51 GiB (84%)
  23. Title                                    : Playback.2012.1080p.BluRay.x264.DTS-FGT
  24. Writing library                          : x264 core 122 r2184 5c85e0a
  25. Encoding settings                        : cabac=1 / ref=4 / deblock=1:0:0 / analyse=0x3:0x133 / me=umh / subme=7 / psy=1 / psy_rd=1.00:0.02 / mixed_ref=1 / me_range=16 / chroma_me=1 / trellis=1 / 8x8dct=1 / cqm=0 / deadzone=21,11 / fast_pskip=0 / chroma_qp_offset=-3 / threads=12 / sliced_threads=0 / nr=0 / decimate=1 / interlaced=0 / bluray_compat=0 / constrained_intra=0 / bframes=3 / b_pyramid=2 / b_adapt=1 / b_bias=0 / direct=1 / weightb=1 / open_gop=0 / weightp=2 / keyint=250 / keyint_min=25 / scenecut=40 / intra_refresh=0 / rc_lookahead=40 / rc=2pass / mbtree=1 / bitrate=8012 / ratetol=1.0 / qcomp=0.60 / qpmin=10 / qpmax=51 / qpstep=4 / cplxblur=20.0 / qblur=0.5 / ip_ratio=1.40 / aq=1:1.00
  26. Language                                 : English
  27. Default                                  : No
  28. Forced                                   : No

  29. Audio
  30. ID                                       : 2
  31. Format                                   : DTS
  32. Format/Info                              : Digital Theater Systems
  33. Codec ID                                 : A_DTS
  34. Duration                                 : 1 h 38 min
  35. Bit rate mode                            : Constant
  36. Bit rate                                 : 1 509 kb/s
  37. Channel(s)                               : 6 channels
  38. Channel layout                           : C L R Ls Rs LFE
  39. Sampling rate                            : 48.0 kHz
  40. Frame rate                               : 93.750 FPS (512 SPF)
  41. Bit depth                                : 24 bits
  42. Compression mode                         : Lossy
  43. Stream size                              : 1.04 GiB (16%)
  44. Title                                    : Playback.2012.1080p.BluRay.x264.DTS-FGT
  45. Language                                 : English
  46. Default                                  : No
  47. Forced                                   : No

  48. Text
  49. ID                                       : 3
  50. Format                                   : UTF-8
  51. Codec ID                                 : S_TEXT/UTF8
  52. Codec ID/Info                            : UTF-8 Plain Text
  53. Duration                                 : 1 h 33 min
  54. Bit rate                                 : 48 b/s
  55. Count of elements                        : 1027
  56. Stream size                              : 33.0 KiB (0%)
  57. Language                                 : English
  58. Default                                  : Yes
  59. Forced                                   : No
复制代码


精彩剧照

倒带/回放 Playback.2012.1080p.BluRay.x264.DTS-FGT 6.55GB

倒带/回放 Playback.2012.1080p.BluRay.x264.DTS-FGT 6.55GB
 

倒带/回放 Playback.2012.1080p.BluRay.x264.DTS-FGT 6.55GB

倒带/回放 Playback.2012.1080p.BluRay.x264.DTS-FGT 6.55GB
 

倒带/回放 Playback.2012.1080p.BluRay.x264.DTS-FGT 6.55GB

倒带/回放 Playback.2012.1080p.BluRay.x264.DTS-FGT 6.55GB



蓝光高清网提示您  点击下方附件名称  马上开始下载

Playback.2012.1080p.BluRay.x264.DTS-FGT.torrent (33.29 KB, 下载次数: 3)

加入蓝光高清网VIP会员  无限制下载本站所有资源---点此加入

资源下载、资源播放、字幕使用、无法下载等常见问题---点这里

回复

使用道具 举报

精彩评论2

雨的承诺 发表于 2019-10-12 18:43:17 | 显示全部楼层

# A2 @) ^( x, N$ T. }0 B4 L0 G收藏了  谢谢

加入蓝光高清网VIP会员  无限制下载本站所有资源---点此加入

资源下载、资源播放、字幕使用、无法下载等常见问题---点这里

回复

使用道具 举报

幽幽高手 发表于 2019-10-13 14:18:13 | 显示全部楼层

( x  l. V8 o( p好网站 希望越来越好

加入蓝光高清网VIP会员  无限制下载本站所有资源---点此加入

资源下载、资源播放、字幕使用、无法下载等常见问题---点这里

回复

使用道具 举报

懒得打字嘛,点击右侧快捷回复
您需要登录后才可以回帖 登录 | 立即注册

本版积分规则

关注0

粉丝0

帖子237

发布主题
最新电影 论坛
广告位
联系我们
点击这里联系客服

服务时间:
周一到周日8:00-23:30

  • 打开微信扫一扫
    关注公众号

  • 手机QQ扫一扫
    添加客服

Archiver手机版蓝光高清网 ( 渝ICP备18006373号-2 )|网站地图

Powered by Discuz! X3.4  © 2001-2013 Comsenz Inc.