天地逃生
sbs 
6.1
  • 年代: 2009年
  • 国家/地区: 美国
  • 类型: 动作 惊悚 科幻 
  • 导演: 马克·耐沃尔代 / 布莱恩·泰勒
  • 音轨:  
  • 时长: 95分钟
  • 主演:杰拉德·巴特勒 / 迈克尔·C·豪尔 / 卢达克里斯 / 安贝·瓦莱塔
特别声明:本站提供的所有高清电影作品均是在网上搜集,任何涉及商业盈利目的均不得使用,否则产生的一切后果将由您自己承担!本站将不对本站的任何内容负任何法律责任!该下载内容仅做宽带测试使用,请在下载后24小时内删除。请购买正版! 本站所有资源均由网上收集而来,版权归原影音公司所有,如果侵犯了你的权益,请通知我们,我们会及时删除侵权内容.

天地逃生/公民游戏 Gamer.2009.3D.1080p.BluRay.x264-GUACAMOLE 7.65GB

[复制链接]
MYadminwl*#VIP会员 年费VIP会员 发表于 2019-10-8 18:26:09 | 显示全部楼层 |阅读模式 打印 上一主题 下一主题

马上注册,轻松下载,海量资源,让你轻松玩转社区。

您需要 登录 才可以下载或查看,没有帐号?立即注册

x
标  签 科幻 | 动作 | 美国 | 暴力 | 美国电影 | 2009 | GerardButler | 电影* y- M6 Y/ S+ j: p% W4 v* Z) @
$ t5 a4 B6 `6 T, [
简  介  
( g$ \* `7 l) G, Z  P) y5 O! V9 W* e- w" Y, ?
  在不远的未来,技术天才肯?卡斯特(Michael C. Hall 饰)发明了将指令细胞植入人脑的纳米技术,以此为基础,卡斯特开发了两款真人在线操控游戏——“社会”和“凶手”,其中“凶手”是将死刑犯们置入残酷的杀戮战场,由线下的玩家指挥他们作战。卡贝尔(Gerard Butler 饰)是凶手游戏中的一名常胜战士,目前已经从27场比赛中存活,而按照规则,只要他再胜利三次,就可以重获自由。
2 u- O  y% T5 j0 o! ^  一个反抗组织在暗中策划推翻富可敌国的卡斯特,他们找到卡贝尔在游戏中的线下配合者——少年西蒙(Gerard Butler 饰),并希望他放弃对卡贝尔的操控,因为后者即将面临卡斯特的阴谋暗算。此时的卡贝尔,成为了推翻卡斯特的关键力量……
) k" |" R$ Q; d; E, X& B7 L( Q
9 c+ Q5 B+ V+ [% C3 r: I影片参数
  • Video
  • ID                                       : 1
  • Format                                   : AVC
  • Format/Info                              : Advanced Video Codec
  • Format profile                           : High@L4
  • MultiView_Count                          : 2
  • MultiView_Layout                         : Side by Side (left eye first)
  • Format settings                          : CABAC / 4 Ref Frames
  • Format settings, CABAC                   : Yes
  • Format settings, Reference frames        : 4 frames
  • Codec ID                                 : V_MPEG4/ISO/AVC
  • Duration                                 : 1 h 35 min
  • Bit rate                                 : 10.0 Mb/s
  • Width                                    : 1 920 pixels
  • Height                                   : 1 080 pixels
  • Display aspect ratio                     : 16:9
  • Frame rate mode                          : Constant
  • Frame rate                               : 23.976 FPS
  • Color space                              : YUV
  • Chroma subsampling                       : 4:2:0
  • Bit depth                                : 8 bits
  • Scan type                                : Progressive
  • Bits/(Pixel*Frame)                       : 0.201
  • Stream size                              : 6.64 GiB (87%)
  • Writing library                          : x264 core 157 r2969 d4099dd
  • Encoding settings                        : cabac=1 / ref=4 / deblock=1:-1:-1 / analyse=0x3:0x113 / me=umh / subme=8 / psy=1 / psy_rd=1.00:0.00 / mixed_ref=1 / me_range=16 / chroma_me=1 / trellis=2 / 8x8dct=1 / cqm=0 / deadzone=21,11 / fast_pskip=0 / chroma_qp_offset=-2 / threads=24 / lookahead_threads=4 / sliced_threads=0 / nr=0 / decimate=1 / interlaced=0 / bluray_compat=0 / constrained_intra=0 / bframes=5 / b_pyramid=2 / b_adapt=1 / b_bias=0 / direct=3 / weightb=1 / open_gop=0 / weightp=1 / keyint=250 / keyint_min=23 / scenecut=40 / intra_refresh=0 / rc_lookahead=40 / rc=2pass / mbtree=1 / bitrate=10007 / ratetol=1.0 / qcomp=0.60 / qpmin=0 / qpmax=69 / qpstep=4 / cplxblur=20.0 / qblur=0.5 / ip_ratio=1.40 / aq=1:1.00
  • Language                                 : English
  • Default                                  : Yes
  • Forced                                   : No
  • Audio
  • ID                                       : 2
  • Format                                   : DTS
  • Format/Info                              : Digital Theater Systems
  • Codec ID                                 : A_DTS
  • Duration                                 : 1 h 35 min
  • Bit rate mode                            : Constant
  • Bit rate                                 : 1 509 kb/s
  • Channel(s)                               : 6 channels
  • Channel layout                           : C L R Ls Rs LFE
  • Sampling rate                            : 48.0 kHz
  • Frame rate                               : 93.750 FPS (512 SPF)
  • Bit depth                                : 24 bits
  • Compression mode                         : Lossy
  • Stream size                              : 1.00 GiB (13%)
  • Language                                 : English
  • Default                                  : Yes
  • Forced                                   : No
  • Menu
  • 00:00:00.000                             : :Kapitel 01
  • 00:04:52.000                             : :Kapitel 02
  • 00:08:11.324                             : :Kapitel 03
  • 00:16:31.407                             : :Kapitel 04
  • 00:20:09.750                             : :Kapitel 05
  • 00:27:35.654                             : :Kapitel 06
  • 00:33:28.632                             : :Kapitel 07
  • 00:38:19.881                             : :Kapitel 08
  • 00:42:07.358                             : :Kapitel 09
  • 00:45:57.088                             : :Kapitel 10
  • 00:52:40.949                             : :Kapitel 11
  • 00:59:59.596                             : :Kapitel 12
  • 01:02:18.818                             : :Kapitel 13
  • 01:07:41.057                             : :Kapitel 14
  • 01:11:29.243                             : :Kapitel 15
  • 01:19:14.291                             : :Kapitel 16- \1 D- O+ y( p8 d+ S" C. L

6 w2 K9 b. ]6 K0 ~- k- f7 Q3 W精彩剧照
$ B) A- D  Q$ T

天地逃生/公民游戏 Gamer.2009.3D.1080p.BluRay.x264-GUACAMOLE 7.65GB

天地逃生/公民游戏 Gamer.2009.3D.1080p.BluRay.x264-GUACAMOLE 7.65GB
7 _6 J' z+ ?( t" m9 I

9 t; [5 t& u) h) r# g6 `" |1 f& X' C; y2 H2 l( B* Z

2 f6 L5 X$ ?4 N8 x0 \0 M7 ^/ d8 t! r9 Z
蓝光高清网提示您  点击下方附件名称  马上开始下载
, ?& |, X- i% v
4 r3 r1 N* D- |3 d
( a% n7 s) M+ E( Y Gamer.2009.3D.1080p.BluRay.x264-GUACAMOLE.torrent (38.96 KB, 下载次数: 5)

加入蓝光高清网VIP会员  无限制下载本站所有资源---点此加入

资源下载、资源播放、字幕使用、无法下载等常见问题---点这里

回复

使用道具 举报

精彩评论3

gougou11 发表于 2019-10-8 18:29:10 | 显示全部楼层
学习了,谢谢分享、、、

加入蓝光高清网VIP会员  无限制下载本站所有资源---点此加入

资源下载、资源播放、字幕使用、无法下载等常见问题---点这里

回复

使用道具 举报

zoogne 发表于 2019-10-8 18:34:17 | 显示全部楼层
学习了,谢谢分享、、、

加入蓝光高清网VIP会员  无限制下载本站所有资源---点此加入

资源下载、资源播放、字幕使用、无法下载等常见问题---点这里

回复

使用道具 举报

幽幽高手 发表于 2019-10-14 09:06:56 | 显示全部楼层
  d3 q% @# k; }* J7 C
收藏了  谢谢

加入蓝光高清网VIP会员  无限制下载本站所有资源---点此加入

资源下载、资源播放、字幕使用、无法下载等常见问题---点这里

回复

使用道具 举报

懒得打字嘛,点击右侧快捷回复
您需要登录后才可以回帖 登录 | 立即注册

本版积分规则

关注0

粉丝0

帖子237

发布主题
最新电影 论坛
广告位
联系我们
点击这里联系客服

服务时间:
周一到周日8:00-23:30

  • 打开微信扫一扫
    关注公众号

  • 手机QQ扫一扫
    添加客服

Archiver手机版蓝光高清网 ( 渝ICP备18006373号-2 )|网站地图

Powered by Discuz! X3.4  © 2001-2013 Comsenz Inc.