[喜剧片] 金童子/横扫千军 The.Golden.Child.1986.1080p.WEBRip.x264-RARBG 1.78GB

[复制链接]
蓝鸟VIP会员 永久VIP 发表于 2019-10-10 09:46:41 | 显示全部楼层 |阅读模式 打印 上一主题 下一主题

马上注册,轻松下载,海量资源,让你轻松玩转社区。

您需要 登录 才可以下载或查看,没有帐号?立即注册

x


译  名 金童子 / 横扫千军
片  名 The Golden Child
年  代 1986
产  地 美国
类  别 喜剧 / 动作 / 悬疑 / 奇幻 / 冒险
语  言 英语
上映日期 1986-12-12
IMDb评分  6.0/10 from 47853 users
IMDb链接  http://www.imdb.com/title/tt0091129
豆瓣评分 5.6/10 from 78 users
豆瓣链接 https://movie.douban.com/subject/1292462/
片  长 94 分钟
导  演 迈克尔·瑞奇 Michael Ritchie
编  剧 Dennis Feldman
主  演 Eddie Murphy
       Charles Dance
       Victor Wong


标  签 美国 | 喜剧 | 奇幻 | 冒险 | 宗教 | 动作 | 美国电影 |  Eddie-Murphy(艾迪·墨菲) 

简  介  

  由首席黑人喜剧红星埃迪.墨菲与夏洛特.路维丝主演的奇幻冒险动作喜剧,出色的特效视觉效果,气氛紧张激烈。在遥远的东方世界西藏,一个男孩带着数代承传的神奇力量诞生了,他的使命是将光明之事带到这个世界上。但是,一个被邪恶势力所控制的庙宇发现这个小男孩是地球上最重要的人物时,以撒陀魔为首的邪恶势力绑架了这个“小金童”,地球的前途未卜。此时,一位洛杉矶的社工员(艾迪墨菲 饰)突然被一名先知者告知,他已被上天选为是拯救小金童的人选,于是,社工员变为热血侠士,他在功夫女郎姬的大力协助下,因此展开了一段长途跋涉的奇幻之旅,两人从东方取回了降魔杵,开始了与撒陀魔的正邪大战,从加州到中国,甚而游走到了地狱!


该资源信息参数
  1. Video
  2. ID                                       : 1
  3. Format                                   : AVC
  4. Format/Info                              : Advanced Video Codec
  5. Format profile                           : High@L4
  6. Format settings                          : CABAC / 4 Ref Frames
  7. Format settings, CABAC                   : Yes
  8. Format settings, Reference frames        : 4 frames
  9. Codec ID                                 : avc1
  10. Codec ID/Info                            : Advanced Video Coding
  11. Duration                                 : 1 h 33 min
  12. Bit rate                                 : 2 500 kb/s
  13. Width                                    : 1 920 pixels
  14. Height                                   : 1 080 pixels
  15. Display aspect ratio                     : 16:9
  16. Frame rate mode                          : Constant
  17. Frame rate                               : 23.976 (23976/1000) FPS
  18. Color space                              : YUV
  19. Chroma subsampling                       : 4:2:0
  20. Bit depth                                : 8 bits
  21. Scan type                                : Progressive
  22. Bits/(Pixel*Frame)                       : 0.050
  23. Stream size                              : 1.63 GiB (92%)
  24. Writing library                          : x264 core 152 r2851M ba24899
  25. Encoding settings                        : cabac=1 / ref=4 / deblock=1:-1:-1 / analyse=0x3:0x113 / me=umh / subme=9 / psy=1 / psy_rd=1.00:0.15 / mixed_ref=1 / me_range=24 / chroma_me=1 / trellis=2 / 8x8dct=1 / cqm=0 / deadzone=21,11 / fast_pskip=1 / chroma_qp_offset=-3 / threads=16 / lookahead_threads=4 / sliced_threads=0 / nr=0 / decimate=1 / interlaced=0 / bluray_compat=0 / constrained_intra=0 / bframes=3 / b_pyramid=2 / b_adapt=2 / b_bias=0 / direct=3 / weightb=1 / open_gop=0 / weightp=2 / keyint=250 / keyint_min=25 / scenecut=40 / intra_refresh=0 / rc_lookahead=50 / rc=2pass / mbtree=1 / bitrate=2500 / ratetol=1.0 / qcomp=0.60 / qpmin=0 / qpmax=69 / qpstep=4 / cplxblur=20.0 / qblur=0.5 / vbv_maxrate=31250 / vbv_bufsize=31250 / nal_hrd=none / filler=0 / ip_ratio=1.40 / aq=3:1.00
  26. Encoded date                             : UTC 2019-10-07 15:47:26
  27. Tagged date                              : UTC 2019-10-07 15:47:26
  28. Codec configuration box                  : avcC

  29. Audio
  30. ID                                       : 2
  31. Format                                   : AAC LC
  32. Format/Info                              : Advanced Audio Codec Low Complexity
  33. Codec ID                                 : mp4a-40-2
  34. Duration                                 : 1 h 33 min
  35. Duration_LastFrame                       : -11 ms
  36. Bit rate mode                            : Constant
  37. Bit rate                                 : 224 kb/s
  38. Channel(s)                               : 6 channels
  39. Channel layout                           : C L R Ls Rs LFE
  40. Sampling rate                            : 48.0 kHz
  41. Frame rate                               : 46.875 FPS (1024 SPF)
  42. Compression mode                         : Lossy
  43. Stream size                              : 150 MiB (8%)
  44. Language                                 : English
  45. Default                                  : Yes
  46. Alternate group                          : 1
  47. Encoded date                             : UTC 2019-10-07 15:47:26
  48. Tagged date                              : UTC 2019-10-07 15:47:26
复制代码


精彩剧照




蓝光高清网提示您 点击下方附件名称 马上开始下载



温馨提示:
本站资源优先使用迅雷下载,迅雷会员下载,速度基本可以跑满宽带
如果遇到无资源或者版权问题无法下载,推荐使用115网盘离线下载(点击查看115网盘离线下载教程


  • 该资源需要您回复以后 刷新网页进行下载操作

  • 1、The.Golden.Child.1986.1080p.WEBRip.x264-RARBG.torrent 18KB 已下载 0 次

加入蓝光高清网VIP会员  无限制下载本站所有资源---点此加入

资源下载、资源播放、字幕使用、无法下载等常见问题---点这里

回复

使用道具 举报

懒得打字嘛,点击右侧快捷回复
高级模式
B Color Image Link Quote Code Smilies 上传

本版积分规则

关注0

粉丝0

帖子68439

发布主题
最新电影 论坛
广告位
联系我们
点击这里联系客服

服务时间:
周一到周日8:00-23:30

  • 打开微信扫一扫
    关注公众号

  • 手机QQ扫一扫
    添加客服

Archiver手机版蓝光高清网 ( 渝ICP备18006373号-2 )|网站地图

Powered by Discuz! X3.4  © 2001-2013 Comsenz Inc.