[其它] 迪克·米勒那家伙 That.Guy.Dick.Miller.2014.1080p.BluRay.x264-GUACAMOLE 6.56GB

[复制链接]
蓝鸟VIP会员 永久VIP 发表于 2019-10-10 11:33:56 | 显示全部楼层 |阅读模式 打印 上一主题 下一主题

马上注册,轻松下载,海量资源,让你轻松玩转社区。

您需要 登录 才可以下载或查看,没有帐号?立即注册

x


译  名 迪克·米勒那家伙
片  名 That Guy Dick Miller
年  代 2014
产  地 美国
类  别 纪录片
语  言 英语
上映日期 2014-03-07(西南偏南电影节)
IMDb评分  7.5/10 from 289 users
IMDb链接  http://www.imdb.com/title/tt2529132
豆瓣评分 0/10 from 0 users
豆瓣链接 https://movie.douban.com/subject/25840336/
片  长 91分钟
导  演 Elijah Drenner
主  演 迪克·米勒 Dick Miller
       Lainie Miller


标  签 Documentary | 豆列 | 美国电影 | NEW | Filmmaker | DickMiller | Cinema | Biography

简  介  

  Dick Miller is the last of the great American character actors. Whether sharing the screen with Nicholson, DeNiro, Schwarzenegger or The Ramones, Dick has been stealing scenes since his screen debut in 1955. He has worked with some of the great directors: Scorsese, Corman, Fuller, Dante, Cameron, Demme and more. Every moviegoer knows his face, but few know his name and even fewer know his story - an aspiring writer turned accidental actor. For the first time, Dick Miller has allowed filmmakers incredible access to his life and home for this funny and unexpected story. Joining him are the directors, producers, co-stars and friends who have helped make him Hollywood"s leading "that guy".


该资源信息参数
  1. Video
  2. ID                                       : 1
  3. Format                                   : AVC
  4. Format/Info                              : Advanced Video Codec
  5. Format profile                           : High@L4
  6. Format settings, CABAC                   : Yes
  7. Format settings, ReFrames                : 4 frames
  8. Codec ID                                 : V_MPEG4/ISO/AVC
  9. Duration                                 : 1h 31mn
  10. Bit rate                                 : 9 506 Kbps
  11. Width                                    : 1 920 pixels
  12. Height                                   : 1 080 pixels
  13. Display aspect ratio                     : 16:9
  14. Frame rate mode                          : Constant
  15. Frame rate                               : 23.976 (24000/1001) fps
  16. Color space                              : YUV
  17. Chroma subsampling                       : 4:2:0
  18. Bit depth                                : 8 bits
  19. Scan type                                : Progressive
  20. Bits/(Pixel*Frame)                       : 0.191
  21. Stream size                              : 6.06 GiB (93%)
  22. Writing library                          : x264 core 150 r2833 df79067
  23. Encoding settings                        : cabac=1 / ref=4 / deblock=1:0:0 / analyse=0x3:0x113 / me=umh / subme=8 / psy=1 / psy_rd=1.00:0.00 / mixed_ref=1 / me_range=16 / chroma_me=1 / trellis=2 / 8x8dct=1 / cqm=0 / deadzone=21,11 / fast_pskip=0 / chroma_qp_offset=-2 / threads=12 / lookahead_threads=2 / sliced_threads=0 / nr=0 / decimate=1 / interlaced=0 / bluray_compat=0 / constrained_intra=0 / bframes=3 / b_pyramid=2 / b_adapt=1 / b_bias=0 / direct=1 / weightb=1 / open_gop=0 / weightp=2 / keyint=250 / keyint_min=23 / scenecut=40 / intra_refresh=0 / rc_lookahead=50 / rc=2pass / mbtree=1 / bitrate=9506 / ratetol=1.0 / qcomp=0.60 / qpmin=0 / qpmax=69 / qpstep=4 / cplxblur=20.0 / qblur=0.5 / ip_ratio=1.40 / aq=1:1.00
  24. Default                                  : Yes
  25. Forced                                   : No

  26. Audio
  27. ID                                       : 2
  28. Format                                   : DTS
  29. Format/Info                              : Digital Theater Systems
  30. Mode                                     : 16
  31. Format settings, Endianness              : Big
  32. Codec ID                                 : A_DTS
  33. Duration                                 : 1h 31mn
  34. Bit rate mode                            : Constant
  35. Bit rate                                 : 768 Kbps
  36. Channel(s)                               : 6 channels
  37. Channel positions                        : Front: L C R, Side: L R, LFE
  38. Sampling rate                            : 48.0 KHz
  39. Frame rate                               : 93.750 fps (512 spf)
  40. Bit depth                                : 16 bits
  41. Compression mode                         : Lossy
  42. Stream size                              : 501 MiB (7%)
  43. Language                                 : English
  44. Default                                  : Yes
  45. Forced                                   : No
复制代码


精彩剧照




蓝光高清网提示您 点击下方附件名称 马上开始下载



温馨提示:
本站资源优先使用迅雷下载,迅雷会员下载,速度基本可以跑满宽带
如果遇到无资源或者版权问题无法下载,推荐使用115网盘离线下载(点击查看115网盘离线下载教程


  • 该资源需要您回复以后 刷新网页进行下载操作

  • 1、That.Guy.Dick.Miller.2014.1080p.BluRay.x264-GUACAMOLE.torrent 132KB 已下载 0 次

加入蓝光高清网VIP会员  无限制下载本站所有资源---点此加入

资源下载、资源播放、字幕使用、无法下载等常见问题---点这里

回复

使用道具 举报

懒得打字嘛,点击右侧快捷回复
高级模式
B Color Image Link Quote Code Smilies 上传

本版积分规则

关注0

粉丝0

帖子71945

发布主题
最新电影 论坛
本期活动
联系我们
点击这里联系客服

服务时间:
周一到周日8:00-23:30

  • 打开微信扫一扫
    关注公众号

  • 手机QQ扫一扫
    添加客服

Archiver手机版蓝光高清网 ( 渝ICP备18006373号-2 )|网站地图

Powered by Discuz! X3.4  © 2001-2013 Comsenz Inc.