[恐怖] 13号星期五/十三号星期五 Friday.The.13th.1980.1080p.BluRay.x264-CiNEFiLE 6.56GB

[复制链接]
蓝鸟VIP会员 永久VIP 发表于 2019-10-21 09:55:06 | 显示全部楼层 |阅读模式 打印 上一主题 下一主题

马上注册,轻松下载,海量资源,让你轻松玩转社区。

您需要 登录 才可以下载或查看,没有帐号?立即注册

x


译  名 13号星期五 / 十三号星期五 / 黑色星期五
片  名 Friday the 13th
年  代 1980
产  地 美国
类  别 悬疑 / 惊悚 / 恐怖
语  言 英语
上映日期 1980-05-09
IMDb评分  6.5/10 from 108715 users
IMDb链接  https://www.imdb.com/title/tt0080761
豆瓣评分 6.3/10 from 4194 users
豆瓣链接 https://movie.douban.com/subject/1293143/
片  长 95 分钟
导  演 肖恩·S·坎宁汉 Sean S. Cunningham
编  剧 Ron Kurz / Victor Miller
主  演 贝丝蒂·帕尔默 Betsy Palmer
       Adrienne King
       凯文·贝肯 Kevin Bacon


标  签 恐怖 | 美国 | 惊悚 | 黑色星期五 | 血腥 | 美国电影 | 1980 | 經典恐怖

简  介  

  1958年,水晶湖营地发生一起两人死亡的命案,而这只是陆续发生在水晶湖旁的一系列凶案和怪事之一,多年以来,附近居民视营地为不祥之地,有意无意敬而远之。水晶湖营地的老板史蒂夫为重整营地,雇佣六名辅导员一起将营地翻新,爱丽丝、杰克(凯文?贝肯 Kevin Bacon 饰)等六人性格活跃,不时用恶作剧缓解无聊的营地生活。另一方面,厨师安妮奔赴营地而来,却在临近村落受到了“疯子”劳夫的警告,结果安妮未到营地,便被害死在路上。水晶湖营地的怪事频现,蛇和劳夫先后拜访辅导员们,为当地的传言更增添了注脚。当夜大雨倾盆,各行其是的辅导员们先后被杀害,而凶手,就潜藏在他们的周围。


该资源信息参数
  1. Video
  2. ID                                       : 1
  3. Format                                   : AVC
  4. Format/Info                              : Advanced Video Codec
  5. Format profile                           : High@L4
  6. Format settings, CABAC                   : Yes
  7. Format settings, ReFrames                : 4 frames
  8. Codec ID                                 : V_MPEG4/ISO/AVC
  9. Duration                                 : 1 h 35 min
  10. Bit rate                                 : 9 199 kb/s
  11. Width                                    : 1 920 pixels
  12. Height                                   : 1 080 pixels
  13. Display aspect ratio                     : 16:9
  14. Frame rate mode                          : Constant
  15. Frame rate                               : 23.976 FPS
  16. Color space                              : YUV
  17. Chroma subsampling                       : 4:2:0
  18. Bit depth                                : 8 bits
  19. Scan type                                : Progressive
  20. Bits/(Pixel*Frame)                       : 0.185
  21. Stream size                              : 6.01 GiB (92%)
  22. Writing library                          : x264 core 66 r1088 71ac0a3
  23. Encoding settings                        : cabac=1 / ref=4 / deblock=1:0:0 / analyse=0x3:0x113 / me=umh / subme=7 / psy_rd=1.0:0.0 / mixed_ref=1 / me_range=16 / chroma_me=1 / trellis=1 / 8x8dct=1 / cqm=0 / deadzone=21,11 / chroma_qp_offset=-2 / threads=6 / nr=0 / decimate=1 / mbaff=0 / bframes=3 / b_pyramid=1 / b_adapt=1 / b_bias=0 / direct=1 / wpredb=1 / keyint=250 / keyint_min=25 / scenecut=40(pre) / rc=2pass / bitrate=9199 / ratetol=1.0 / qcomp=0.60 / qpmin=10 / qpmax=51 / qpstep=4 / cplxblur=20.0 / qblur=0.5 / ip_ratio=1.40 / pb_ratio=1.30 / aq=1:1.00
  24. Language                                 : English
  25. Default                                  : Yes
  26. Forced                                   : No

  27. Audio
  28. ID                                       : 2
  29. Format                                   : AC-3
  30. Format/Info                              : Audio Coding 3
  31. Format settings, Endianness              : Big
  32. Codec ID                                 : A_AC3
  33. Duration                                 : 1 h 35 min
  34. Bit rate mode                            : Constant
  35. Bit rate                                 : 640 kb/s
  36. Channel(s)                               : 6 channels
  37. Channel positions                        : Front: L C R, Side: L R, LFE
  38. Sampling rate                            : 48.0 kHz
  39. Frame rate                               : 31.250 FPS (1536 spf)
  40. Bit depth                                : 16 bits
  41. Compression mode                         : Lossy
  42. Stream size                              : 437 MiB (7%)
  43. Language                                 : English
  44. Service kind                             : Complete Main
  45. Default                                  : Yes
  46. Forced                                   : No
复制代码


精彩剧照




蓝光高清网提示您 点击下方附件名称 马上开始下载



温馨提示:
本站资源优先使用迅雷下载,迅雷会员下载,速度基本可以跑满宽带
如果遇到无资源或者版权问题无法下载,推荐使用115网盘离线下载(点击查看115网盘离线下载教程


  • 该资源需要您回复以后 刷新网页进行下载操作

  • 1、Friday.The.13th.1980.1080p.BluRay.x264-CiNEFiLE.torrent 66KB 已下载 0 次

加入蓝光高清网VIP会员  无限制下载本站所有资源---点此加入

资源下载、资源播放、字幕使用、无法下载等常见问题---点这里

回复

使用道具 举报

精彩评论17

23H4 发表于 2019-10-21 10:27:49 | 显示全部楼层
好网站 希望越来越好

加入蓝光高清网VIP会员  无限制下载本站所有资源---点此加入

资源下载、资源播放、字幕使用、无法下载等常见问题---点这里

回复

使用道具 举报

胸部停球 发表于 2019-10-21 10:37:55 | 显示全部楼层
谢谢分享

加入蓝光高清网VIP会员  无限制下载本站所有资源---点此加入

资源下载、资源播放、字幕使用、无法下载等常见问题---点这里

回复

使用道具 举报

hbbdqy2004 发表于 2019-10-21 11:46:52 | 显示全部楼层
谢谢分享

加入蓝光高清网VIP会员  无限制下载本站所有资源---点此加入

资源下载、资源播放、字幕使用、无法下载等常见问题---点这里

回复

使用道具 举报

jackol007 发表于 2019-10-21 12:03:10 | 显示全部楼层
蓝光高清网是个好地方

加入蓝光高清网VIP会员  无限制下载本站所有资源---点此加入

资源下载、资源播放、字幕使用、无法下载等常见问题---点这里

回复

使用道具 举报

gaofei2057 发表于 2019-10-21 12:54:58 | 显示全部楼层
还是蓝光看起带劲 音效爆棚

加入蓝光高清网VIP会员  无限制下载本站所有资源---点此加入

资源下载、资源播放、字幕使用、无法下载等常见问题---点这里

回复

使用道具 举报

流浪汉2 发表于 2019-10-21 13:00:03 | 显示全部楼层
谢谢分享

加入蓝光高清网VIP会员  无限制下载本站所有资源---点此加入

资源下载、资源播放、字幕使用、无法下载等常见问题---点这里

回复

使用道具 举报

skyabove 发表于 2019-10-21 13:20:47 | 显示全部楼层
不管怎么说就是支持,感谢版主的无私付出

加入蓝光高清网VIP会员  无限制下载本站所有资源---点此加入

资源下载、资源播放、字幕使用、无法下载等常见问题---点这里

回复

使用道具 举报

贲鹰杂牢 发表于 2019-10-21 15:04:07 | 显示全部楼层
楼主幸苦了

加入蓝光高清网VIP会员  无限制下载本站所有资源---点此加入

资源下载、资源播放、字幕使用、无法下载等常见问题---点这里

回复

使用道具 举报

yage99 发表于 2019-10-21 15:40:03 | 显示全部楼层
这个帖子不回对不起自己!我想我是一天也不能离开蓝光高清网了

加入蓝光高清网VIP会员  无限制下载本站所有资源---点此加入

资源下载、资源播放、字幕使用、无法下载等常见问题---点这里

回复

使用道具 举报

懒得打字嘛,点击右侧快捷回复
高级模式
B Color Image Link Quote Code Smilies 上传

本版积分规则

关注0

粉丝0

帖子68439

发布主题
最新电影 论坛
广告位
联系我们
点击这里联系客服

服务时间:
周一到周日8:00-23:30

  • 打开微信扫一扫
    关注公众号

  • 手机QQ扫一扫
    添加客服

Archiver手机版蓝光高清网 ( 渝ICP备18006373号-2 )|网站地图

Powered by Discuz! X3.4  © 2001-2013 Comsenz Inc.