[剧情] 我聘请了职业杀手/我雇了一名合约杀手 I.Hired.A.Contract.Killer.1990.1080p.BluRay.x264-MCHD 6.56GB

[复制链接]
蓝鸟VIP会员 永久VIP 发表于 2019-10-21 09:56:00 | 显示全部楼层 |阅读模式 打印 上一主题 下一主题

马上注册,轻松下载,海量资源,让你轻松玩转社区。

您需要 登录 才可以下载或查看,没有帐号?立即注册

x


译  名 我聘请了职业杀手 / 我雇了一名合约杀手
片  名 I Hired a Contract Killer
年  代 1990
产  地 芬兰 / 德国 / 瑞典 / 法国 / 英国
类  别 剧情 / 喜剧
语  言 英语 / 芬兰语
上映日期 1990-09-13
IMDb评分  7.2/10 from 5253 users
IMDb链接  https://www.imdb.com/title/tt0099818
豆瓣评分 7.6/10 from 2273 users
豆瓣链接 https://movie.douban.com/subject/1306801/
片  长 79 分钟
导  演 Aki Kaurism?ki
编  剧 Aki Kaurism?ki
主  演 Jean-Pierre Léaud
       Margi Clarke
       Kenneth Colley
       T.R. Bowen
       Imogen Claire


标  签 芬兰 | 阿基·考里斯马基 | 1990 | 喜剧 | 芬兰电影 | Aki_Kaurism?ki | 1990s | AkiKaurismaki

简  介  

  在为公司勤勤恳恳工作了十五年之后,亨利(让-皮埃尔·利奥德 Jean-Pierre Léaud 饰)却落得了一个被解雇的悲惨下场。心中充满愤懑的他在生活里也四处碰壁,绝望之中,他想到了自杀。可是,无论他使用什么法子,都无法成功赴死,就在这时,他在报纸上看到了一间聚集着黑道分子和杀手的小酒馆,他决定去那里试一试。
  亨利雇佣了一名杀手(肯尼斯·考利 Kenneth Colley 饰),让他来取自己的性命,然而,在此之后,亨利意围的邂逅了名叫玛格丽特(Margi Clarke 饰)的美丽卖花女孩,两人迅速擦出爱情的火花。生命有了继续下去的意义,亨利不想死了,然而,他却怎么也找不到当初和他签订了合约的杀手,这也就意味着,从此刻开始,他随时都有可能遭到杀手的暗杀。

获奖情况  

  第47届威尼斯电影节(1990)
  主竞赛单元 金狮奖 (提名) 阿基·考里斯马基


该资源信息参数
  1. Video
  2. ID                                       : 1
  3. Format                                   : AVC
  4. Format/Info                              : Advanced Video Codec
  5. Format profile                           : High@L4
  6. Format settings                          : CABAC / 4 Ref Frames
  7. Format settings, CABAC                   : Yes
  8. Format settings, Reference frames        : 4 frames
  9. Codec ID                                 : V_MPEG4/ISO/AVC
  10. Duration                                 : 1 h 19 min
  11. Bit rate                                 : 11.1 Mb/s
  12. Width                                    : 1 920 pixels
  13. Height                                   : 1 080 pixels
  14. Display aspect ratio                     : 16:9
  15. Frame rate mode                          : Constant
  16. Frame rate                               : 23.976 (24000/1001) FPS
  17. Color space                              : YUV
  18. Chroma subsampling                       : 4:2:0
  19. Bit depth                                : 8 bits
  20. Scan type                                : Progressive
  21. Bits/(Pixel*Frame)                       : 0.223
  22. Stream size                              : 6.00 GiB (92%)
  23. Writing library                          : x264 core 133 r2334 a3ac64b
  24. Encoding settings                        : cabac=1 / ref=4 / deblock=1:0:0 / analyse=0x3:0x133 / me=umh / subme=7 / psy=1 / psy_rd=1.00:0.00 / mixed_ref=1 / me_range=16 / chroma_me=1 / trellis=1 / 8x8dct=1 / cqm=0 / deadzone=21,11 / fast_pskip=0 / chroma_qp_offset=-2 / threads=6 / lookahead_threads=1 / sliced_threads=0 / nr=0 / decimate=1 / interlaced=0 / bluray_compat=0 / constrained_intra=0 / bframes=3 / b_pyramid=2 / b_adapt=2 / b_bias=0 / direct=3 / weightb=1 / open_gop=0 / weightp=2 / keyint=250 / keyint_min=23 / scenecut=40 / intra_refresh=0 / rc_lookahead=50 / rc=2pass / mbtree=1 / bitrate=11087 / ratetol=1.0 / qcomp=0.60 / qpmin=0 / qpmax=69 / qpstep=4 / cplxblur=20.0 / qblur=0.5 / ip_ratio=1.40 / aq=1:1.00
  25. Language                                 : English
  26. Default                                  : No
  27. Forced                                   : No

  28. Audio
  29. ID                                       : 2
  30. Format                                   : DTS
  31. Format/Info                              : Digital Theater Systems
  32. Codec ID                                 : A_DTS
  33. Duration                                 : 1 h 19 min
  34. Bit rate mode                            : Constant
  35. Bit rate                                 : 768 kb/s
  36. Channel(s)                               : 1 channel
  37. Channel layout                           : C
  38. Sampling rate                            : 48.0 kHz
  39. Frame rate                               : 93.750 FPS (512 SPF)
  40. Bit depth                                : 24 bits
  41. Compression mode                         : Lossy
  42. Stream size                              : 435 MiB (6%)
  43. Language: English
  44. Default                                  : Yes
  45. Forced                                   : No
复制代码


精彩剧照




蓝光高清网提示您 点击下方附件名称 马上开始下载



温馨提示:
本站资源优先使用迅雷下载,迅雷会员下载,速度基本可以跑满宽带
如果遇到无资源或者版权问题无法下载,推荐使用115网盘离线下载(点击查看115网盘离线下载教程


  • 该资源需要您回复以后 刷新网页进行下载操作

  • 1、I.Hired.A.Contract.Killer.1990.1080p.BluRay.x264-MCHD.torrent 33KB 已下载 0 次

加入蓝光高清网VIP会员  无限制下载本站所有资源---点此加入

资源下载、资源播放、字幕使用、无法下载等常见问题---点这里

回复

使用道具 举报

精彩评论18

qfans 发表于 2019-10-21 10:17:20 | 显示全部楼层
楼主发贴辛苦了,谢谢楼主分享!

加入蓝光高清网VIP会员  无限制下载本站所有资源---点此加入

资源下载、资源播放、字幕使用、无法下载等常见问题---点这里

回复

使用道具 举报

mbgg2797 发表于 2019-10-21 12:08:21 | 显示全部楼层
终于找到了  谢谢分享

加入蓝光高清网VIP会员  无限制下载本站所有资源---点此加入

资源下载、资源播放、字幕使用、无法下载等常见问题---点这里

回复

使用道具 举报

shajunspk4 发表于 2019-10-21 12:23:44 | 显示全部楼层
还是蓝光看起带劲 音效爆棚

加入蓝光高清网VIP会员  无限制下载本站所有资源---点此加入

资源下载、资源播放、字幕使用、无法下载等常见问题---点这里

回复

使用道具 举报

好酷 发表于 2019-10-21 13:10:17 | 显示全部楼层
楼主,大恩不言谢了!

加入蓝光高清网VIP会员  无限制下载本站所有资源---点此加入

资源下载、资源播放、字幕使用、无法下载等常见问题---点这里

回复

使用道具 举报

hemei11415 发表于 2019-10-21 13:51:16 | 显示全部楼层
谢谢  下载了  3Q

加入蓝光高清网VIP会员  无限制下载本站所有资源---点此加入

资源下载、资源播放、字幕使用、无法下载等常见问题---点这里

回复

使用道具 举报

skinlk 发表于 2019-10-21 18:11:54 | 显示全部楼层
刷一波高清币,嘿嘿

加入蓝光高清网VIP会员  无限制下载本站所有资源---点此加入

资源下载、资源播放、字幕使用、无法下载等常见问题---点这里

回复

使用道具 举报

chablis 发表于 2019-10-21 18:27:26 | 显示全部楼层
好电影 收藏了

加入蓝光高清网VIP会员  无限制下载本站所有资源---点此加入

资源下载、资源播放、字幕使用、无法下载等常见问题---点这里

回复

使用道具 举报

sx1530 发表于 2019-10-21 20:45:50 | 显示全部楼层
谢谢分享

加入蓝光高清网VIP会员  无限制下载本站所有资源---点此加入

资源下载、资源播放、字幕使用、无法下载等常见问题---点这里

回复

使用道具 举报

6161616 发表于 2019-10-21 20:45:50 | 显示全部楼层
好资源 收藏了 谢谢分享

加入蓝光高清网VIP会员  无限制下载本站所有资源---点此加入

资源下载、资源播放、字幕使用、无法下载等常见问题---点这里

回复

使用道具 举报

懒得打字嘛,点击右侧快捷回复
高级模式
B Color Image Link Quote Code Smilies 上传

本版积分规则

关注0

粉丝0

帖子68439

发布主题
最新电影 论坛
广告位
联系我们
点击这里联系客服

服务时间:
周一到周日8:00-23:30

  • 打开微信扫一扫
    关注公众号

  • 手机QQ扫一扫
    添加客服

Archiver手机版蓝光高清网 ( 渝ICP备18006373号-2 )|网站地图

Powered by Discuz! X3.4  © 2001-2013 Comsenz Inc.