[喜剧] 诺娜/85年 Vuonna.85.2013.1080p.BluRay.x264-MCHD 6.56GB

[复制链接]
蓝鸟 发表于 2019-10-21 09:56:50 | 显示全部楼层 |阅读模式 打印 上一主题 下一主题
诺娜/85年 Vuonna.85.2013.1080p.BluRay.x264-MCHD 6.56GB-1.png

译  名 诺娜 / 85年
片  名 Vuonna 85
年  代 2013
产  地 芬兰
类  别 喜剧 / 音乐
语  言 芬兰语
上映日期 2013-01-25(芬兰)
IMDb评分  5.0/10 from 577 users
IMDb链接  https://www.imdb.com/title/tt2088974
豆瓣评分 0/10 from 0 users
豆瓣链接 https://movie.douban.com/subject/24751791/
导  演 Timo Koivusalo / Riku Suokas
编  剧 Riku Suokas / Heikki Syrj? / Heikki Vihinen
主  演 Mikko Nousiainen
       Malla Malmivaara
       Miina Maasola
       Jussi Lampi


标  签 芬兰 | 2013 | 冬天

简  介  

  暂无相关剧情介绍


该资源信息参数
  1. Video
  2. ID                                       : 1
  3. Format                                   : AVC
  4. Format/Info                              : Advanced Video Codec
  5. Format profile                           : High@L4
  6. Format settings                          : CABAC / 5 Ref Frames
  7. Format settings, CABAC                   : Yes
  8. Format settings, Reference frames        : 5 frames
  9. Codec ID                                 : V_MPEG4/ISO/AVC
  10. Duration                                 : 1 h 39 min
  11. Bit rate                                 : 8 955 kb/s
  12. Width                                    : 1 920 pixels
  13. Height                                   : 816 pixels
  14. Display aspect ratio                     : 2.35:1
  15. Frame rate mode                          : Constant
  16. Frame rate                               : 24.000 FPS
  17. Color space                              : YUV
  18. Chroma subsampling                       : 4:2:0
  19. Bit depth                                : 8 bits
  20. Scan type                                : Progressive
  21. Bits/(Pixel*Frame)                       : 0.238
  22. Stream size                              : 6.12 GiB (93%)
  23. Writing library                          : x264 core 133 r2334 a3ac64b
  24. Encoding settings                        : cabac=1 / ref=5 / deblock=1:0:0 / analyse=0x3:0x133 / me=umh / subme=7 / psy=1 / psy_rd=1.00:0.00 / mixed_ref=1 / me_range=16 / chroma_me=1 / trellis=1 / 8x8dct=1 / cqm=0 / deadzone=21,11 / fast_pskip=0 / chroma_qp_offset=-2 / threads=6 / lookahead_threads=1 / sliced_threads=0 / nr=0 / decimate=1 / interlaced=0 / bluray_compat=0 / constrained_intra=0 / bframes=3 / b_pyramid=2 / b_adapt=2 / b_bias=0 / direct=3 / weightb=1 / open_gop=0 / weightp=2 / keyint=250 / keyint_min=24 / scenecut=40 / intra_refresh=0 / rc_lookahead=50 / rc=2pass / mbtree=1 / bitrate=8955 / ratetol=1.0 / qcomp=0.60 / qpmin=0 / qpmax=69 / qpstep=4 / cplxblur=20.0 / qblur=0.5 / ip_ratio=1.40 / aq=1:1.00
  25. Language                                 : Finnish
  26. Default                                  : No
  27. Forced                                   : No

  28. Audio
  29. ID                                       : 2
  30. Format                                   : AC-3
  31. Format/Info                              : Audio Coding 3
  32. Commercial name                          : Dolby Digital
  33. Codec ID                                 : A_AC3
  34. Duration                                 : 1 h 39 min
  35. Bit rate mode                            : Constant
  36. Bit rate                                 : 448 kb/s
  37. Channel(s)                               : 6 channels
  38. Channel layout                           : L R C LFE Ls Rs
  39. Sampling rate                            : 48.0 kHz
  40. Frame rate                               : 31.250 FPS (1536 SPF)
  41. Bit depth                                : 16 bits
  42. Compression mode                         : Lossy
  43. Stream size                              : 320 MiB (5%)
  44. Language                                 : Finnish
  45. Service kind                             : Complete Main
  46. Default                                  : Yes
  47. Forced                                   : No

  48. Text
  49. ID                                       : 3
  50. Format                                   : UTF-8
  51. Codec ID                                 : S_TEXT/UTF8
  52. Codec ID/Info                            : UTF-8 Plain Text
  53. Language                                 : English
  54. Default                                  : Yes
  55. Forced                                   : No
复制代码


精彩剧照

诺娜/85年 Vuonna.85.2013.1080p.BluRay.x264-MCHD 6.56GB-2.png 诺娜/85年 Vuonna.85.2013.1080p.BluRay.x264-MCHD 6.56GB-3.png 诺娜/85年 Vuonna.85.2013.1080p.BluRay.x264-MCHD 6.56GB-4.png


蓝光高清网提示您 点击下方附件名称 马上开始下载

Vuonna.85.2013.1080p.BluRay.x264-MCHD.torrent 
         (33.29 KB    阅读权限: 0)
加入蓝光高清网VIP会员  无限制下载本站所有资源---点这里

资源下载、资源播放、字幕使用、无法下载等常见问题---点这里
回复

使用道具 举报

精彩评论18

yuhjnmkilo 发表于 2019-10-21 10:02:02 | 显示全部楼层
谢谢版主 希望坚持下去 好资源
回复

使用道具 举报

wanglei123 发表于 2019-10-21 12:13:28 | 显示全部楼层
希望蓝光高清网越来越好
回复

使用道具 举报

whl0221 发表于 2019-10-21 14:06:45 | 显示全部楼层
楼主,大恩不言谢了!
回复

使用道具 举报

marsbest 发表于 2019-10-21 14:33:07 | 显示全部楼层
等好久这个资源了
回复

使用道具 举报

ejinjing.net 发表于 2019-10-21 16:00:33 | 显示全部楼层
真是 收益 匪浅
回复

使用道具 举报

diudiucat 发表于 2019-10-21 16:37:12 | 显示全部楼层
下载试一试
回复

使用道具 举报

慧君 发表于 2019-10-21 16:53:13 | 显示全部楼层
谢谢楼主分享
回复

使用道具 举报

qzoo 发表于 2019-10-21 17:25:19 | 显示全部楼层
不错不错,楼主您辛苦了。。。
回复

使用道具 举报

landiaozi 发表于 2019-10-21 17:51:01 | 显示全部楼层
相当不错,感谢无私分享精神!
回复

使用道具 举报

您需要登录后才可以回帖 登录 | 立即注册

本版积分规则

关注0

粉丝1

帖子83875

发布主题
最新电影 论坛
本期活动
联系我们
点击这里联系客服

服务时间:
周一到周日8:00-23:30

  • 打开微信扫一扫
    关注公众号

  • 手机QQ扫一扫
    添加客服

手机版蓝光高清网 |网站地图

Powered by Discuz! X3.4  © 2001-2013 Comsenz Inc.