[喜剧] 坐稳车泰欣娜 Take.Care.of.Your.Scarf.Tatiana.1994.1080p.BluRay.x264-MCHD 5.45GB

[复制链接]
蓝鸟VIP会员 永久VIP 发表于 2019-10-21 09:57:42 | 显示全部楼层 |阅读模式 打印 上一主题 下一主题

马上注册,轻松下载,海量资源,让你轻松玩转社区。

您需要 登录 才可以下载或查看,没有帐号?立即注册

x


译  名 坐稳车,泰欣娜 / Take Care of Your Scarf, Tatiana
片  名 Pid? huivista kiinni, Tatjana
年  代 1994
产  地 芬兰 / 德国
类  别 喜剧
语  言 芬兰语 / 俄语
上映日期 1994-01-14(芬兰)
IMDb评分  7.3/10 from 2615 users
IMDb链接  https://www.imdb.com/title/tt0110832
豆瓣评分 7.8/10 from 552 users
豆瓣链接 https://movie.douban.com/subject/1401897/
片  长 Canada: 65 分钟
导  演 阿基·考里斯马基 Aki Kaurismaki
编  剧 Sakke J?rvenp?? / 阿基·考里斯马基 Aki Kaurismaki
主  演 卡蒂·奥廷宁 Kati Outinen
       Kirsi Tykkyl?inen
       马蒂·佩龙帕 Matti Pellonp??


标  签 芬兰 | 阿基·考里斯马基 | AkiKaurism?ki | 1994 | 芬兰电影 | 喜剧 | 黑白 | 1990s

简  介  

  这是一部寓言般,反浪漫的公路电影,男青年瓦尔特是个裁缝,每天帮着母亲缝制衣服,可是他向往围面的世界,于是他乘着母亲不备将母亲锁进屋子并偷了母亲的钱物找了一个哥们驾车兜风,在路上遇见了来旅游的泰欣娜和其女友,他们四人结伴而行,沉默寡言的两个男人和随心所欲的两个女人产生许多 戏剧冲突,他们一起住店,一起听摇滚音乐会,折腾许久以后,瓦尔特决定回家,回家后他若无其事地坐回缝纫机边继续他的裁缝生涯,仿佛一切未曾发生过。

获奖情况  

  第7届东京国际电影节(1994)
  主竞赛单元 最佳影片(提名) 阿基·考里斯马基


该资源信息参数
  1. Video
  2. ID                                       : 1
  3. Format                                   : AVC
  4. Format/Info                              : Advanced Video Codec
  5. Format profile                           : High@L4
  6. Format settings                          : CABAC / 4 Ref Frames
  7. Format settings, CABAC                   : Yes
  8. Format settings, Reference frames        : 4 frames
  9. Codec ID                                 : V_MPEG4/ISO/AVC
  10. Duration                                 : 1 h 2 min
  11. Bit rate                                 : 11.8 Mb/s
  12. Width                                    : 1 920 pixels
  13. Height                                   : 1 040 pixels
  14. Display aspect ratio                     : 1.85:1
  15. Frame rate mode                          : Constant
  16. Frame rate                               : 23.976 (24000/1001) FPS
  17. Color space                              : YUV
  18. Chroma subsampling                       : 4:2:0
  19. Bit depth                                : 8 bits
  20. Scan type                                : Progressive
  21. Bits/(Pixel*Frame)                       : 0.247
  22. Stream size                              : 5.01 GiB (92%)
  23. Writing library                          : x264 core 133 r2334 a3ac64b
  24. Encoding settings                        : cabac=1 / ref=4 / deblock=1:0:0 / analyse=0x3:0x133 / me=umh / subme=7 / psy=1 / psy_rd=1.00:0.00 / mixed_ref=1 / me_range=16 / chroma_me=1 / trellis=1 / 8x8dct=1 / cqm=0 / deadzone=21,11 / fast_pskip=0 / chroma_qp_offset=-2 / threads=6 / lookahead_threads=1 / sliced_threads=0 / nr=0 / decimate=1 / interlaced=0 / bluray_compat=0 / constrained_intra=0 / bframes=3 / b_pyramid=2 / b_adapt=2 / b_bias=0 / direct=3 / weightb=1 / open_gop=0 / weightp=2 / keyint=250 / keyint_min=23 / scenecut=40 / intra_refresh=0 / rc_lookahead=50 / rc=2pass / mbtree=1 / bitrate=11813 / ratetol=1.0 / qcomp=0.60 / qpmin=0 / qpmax=69 / qpstep=4 / cplxblur=20.0 / qblur=0.5 / ip_ratio=1.40 / aq=1:1.00
  25. Language                                 : English
  26. Default                                  : No
  27. Forced                                   : No

  28. Audio
  29. ID                                       : 2
  30. Format                                   : DTS
  31. Format/Info                              : Digital Theater Systems
  32. Codec ID                                 : A_DTS
  33. Duration                                 : 1 h 2 min
  34. Bit rate mode                            : Constant
  35. Bit rate                                 : 768 kb/s
  36. Channel(s)                               : 1 channel
  37. Channel layout                           : C
  38. Sampling rate                            : 48.0 kHz
  39. Frame rate                               : 93.750 FPS (512 SPF)
  40. Bit depth                                : 24 bits
  41. Compression mode                         : Lossy
  42. Stream size                              : 342 MiB (6%)
  43. Language                                 : Finnish
  44. Default                                  : Yes
  45. Forced                                   : No

  46. Text
  47. ID                                       : 3
  48. Format                                   : UTF-8
  49. Codec ID                                 : S_TEXT/UTF8
  50. Codec ID/Info                            : UTF-8 Plain Text
  51. Language                                 : English
  52. Default                                  : Yes
  53. Forced                                   : No

  54. Menu
  55. 00:00:00.000                             : en:00:00:00.000
  56. 00:04:21.636                             : en:00:04:21.636
  57. 00:07:53.598                             : en:00:07:53.598
  58. 00:11:45.496                             : en:00:11:45.496
  59. 00:16:04.380                             : en:00:16:04.380
  60. 00:21:01.427                             : en:00:21:01.427
  61. 00:24:10.741                             : en:00:24:10.741
  62. 00:27:39.366                             : en:00:27:39.366
  63. 00:32:30.740                             : en:00:32:30.740
  64. 00:35:40.972                             : en:00:35:40.972
  65. 00:40:29.844                             : en:00:40:29.844
  66. 00:43:09.212                             : en:00:43:09.212
  67. 00:48:10.429                             : en:00:48:10.429
  68. 00:52:09.668                             : en:00:52:09.668
  69. 00:55:31.703                             : en:00:55:31.703
  70. 00:59:02.289                             : en:00:59:02.289
复制代码


精彩剧照




蓝光高清网提示您 点击下方附件名称 马上开始下载



温馨提示:
本站资源优先使用迅雷下载,迅雷会员下载,速度基本可以跑满宽带
如果遇到无资源或者版权问题无法下载,推荐使用115网盘离线下载(点击查看115网盘离线下载教程


  • 该资源需要您回复以后 刷新网页进行下载操作

  • 1、Take.Care.of.Your.Scarf.Tatiana.1994.1080p.BluRay.x264-MCHD.torrent 28KB 已下载 0 次

加入蓝光高清网VIP会员  无限制下载本站所有资源---点此加入

资源下载、资源播放、字幕使用、无法下载等常见问题---点这里

回复

使用道具 举报

精彩评论27

alda20_love@yah 发表于 2019-10-21 10:32:53 | 显示全部楼层
找了好久 终于找到了  谢谢分享

加入蓝光高清网VIP会员  无限制下载本站所有资源---点此加入

资源下载、资源播放、字幕使用、无法下载等常见问题---点这里

回复

使用道具 举报

treeyip 发表于 2019-10-21 11:20:38 | 显示全部楼层
刷一波高清币,嘿嘿

加入蓝光高清网VIP会员  无限制下载本站所有资源---点此加入

资源下载、资源播放、字幕使用、无法下载等常见问题---点这里

回复

使用道具 举报

econsky 发表于 2019-10-21 11:31:28 | 显示全部楼层
不错,支持下楼主

加入蓝光高清网VIP会员  无限制下载本站所有资源---点此加入

资源下载、资源播放、字幕使用、无法下载等常见问题---点这里

回复

使用道具 举报

k029 发表于 2019-10-21 11:41:43 | 显示全部楼层
不管怎么说就是支持,感谢版主的无私付出

加入蓝光高清网VIP会员  无限制下载本站所有资源---点此加入

资源下载、资源播放、字幕使用、无法下载等常见问题---点这里

回复

使用道具 举报

tcbxh2008 发表于 2019-10-21 13:05:12 | 显示全部楼层
好电影 谢谢楼主分享

加入蓝光高清网VIP会员  无限制下载本站所有资源---点此加入

资源下载、资源播放、字幕使用、无法下载等常见问题---点这里

回复

使用道具 举报

qwerlove74 发表于 2019-10-21 13:25:55 | 显示全部楼层
楼主发贴辛苦了,谢谢楼主分享!

加入蓝光高清网VIP会员  无限制下载本站所有资源---点此加入

资源下载、资源播放、字幕使用、无法下载等常见问题---点这里

回复

使用道具 举报

qwerlove74 发表于 2019-10-21 13:36:02 | 显示全部楼层
相当不错,感谢无私分享精神!

加入蓝光高清网VIP会员  无限制下载本站所有资源---点此加入

资源下载、资源播放、字幕使用、无法下载等常见问题---点这里

回复

使用道具 举报

yjf_killer 发表于 2019-10-21 14:17:27 | 显示全部楼层
不错不错,楼主您辛苦了。。。

加入蓝光高清网VIP会员  无限制下载本站所有资源---点此加入

资源下载、资源播放、字幕使用、无法下载等常见问题---点这里

回复

使用道具 举报

vacume 发表于 2019-10-21 14:22:46 | 显示全部楼层
好电影 谢谢楼主分享

加入蓝光高清网VIP会员  无限制下载本站所有资源---点此加入

资源下载、资源播放、字幕使用、无法下载等常见问题---点这里

回复

使用道具 举报

懒得打字嘛,点击右侧快捷回复
高级模式
B Color Image Link Quote Code Smilies 上传

本版积分规则

关注0

粉丝0

帖子68439

发布主题
最新电影 论坛
广告位
联系我们
点击这里联系客服

服务时间:
周一到周日8:00-23:30

  • 打开微信扫一扫
    关注公众号

  • 手机QQ扫一扫
    添加客服

Archiver手机版蓝光高清网 ( 渝ICP备18006373号-2 )|网站地图

Powered by Discuz! X3.4  © 2001-2013 Comsenz Inc.