[剧情] 伍里约基夫人 Hella.W.2011.1080p.BluRay.x264-MCHD 6.54GB

[复制链接]
蓝鸟VIP会员 永久VIP 发表于 2019-10-21 09:58:36 | 显示全部楼层 |阅读模式 打印 上一主题 下一主题

马上注册,轻松下载,海量资源,让你轻松玩转社区。

您需要 登录 才可以下载或查看,没有帐号?立即注册

x


译  名 伍里约基夫人
片  名 Hella W
年  代 2011
产  地 芬兰 / 爱沙尼亚
类  别 剧情
语  言 芬兰语
上映日期 2011-01-28
IMDb评分  5.3/10 from 316 users
IMDb链接  https://www.imdb.com/title/tt1382722
豆瓣评分 0/10 from 0 users
豆瓣链接 https://movie.douban.com/subject/3564280/
导  演 卓哈·沃里诸基 Juha Wuolijoki
编  剧 卓哈·沃里诸基 Juha Wuolijoki
主  演 Tiina Weckstr?m
       Hannu-Pekka Bj?rkman
       Matleena Kuusniemi
       Maria Heiskanen


标  签 芬兰 | 传记 | 爱沙尼亚 | 电影 | 芬兰电影 | 女性 | 剧情 | 2011

简  介  

  本片是海拉·伍里约基的传记片,她兼具诗人、间谍和百万富翁三重身份,是芬兰历史上具有多种才华、最复杂、并有着最广泛影响的女人。她是国际知名的实业家、政治家和剧作家,曾与布莱希特、高尔基等人合作。在上世纪20年代初她已经有数百万身家,并创作了一些颇有政治风险的戏剧,因此被因果、苏联和芬兰的情报机构严密监视不久,第二次世界大战开始,她发现自己的处在不可能做出正确选择的境地。与芬兰的情报机构一样,她也面临着相同的任务:找出她自己究竟是谁。她的多重身份——著名作家、百万富翁、不合格的政客,以及一名母亲——之下,到底隐藏着什么呢?


该资源信息参数
  1. Video
  2. ID : 6
  3. Format : AVC
  4. Format/Info : Advanced Video Codec
  5. Format profile : High@L4
  6. Format settings : CABAC / 5 Ref Frames
  7. Format settings, CABAC : Yes
  8. Format settings, Reference frames : 5 frames
  9. Codec ID : V_MPEG4/ISO/AVC
  10. Duration : 1 h 20 min
  11. Bit rate : 10.1 Mb/s
  12. Width : 1 920 pixels
  13. Height : 800 pixels
  14. Display aspect ratio : 2.40:1
  15. Frame rate mode : Constant
  16. Frame rate : 23.976 (24000/1001) FPS
  17. Color space : YUV
  18. Chroma subsampling : 4:2:0
  19. Bit depth : 8 bits
  20. Scan type : Progressive
  21. Bits/(Pixel*Frame) : 0.275
  22. Stream size : 5.55 GiB (85%)
  23. Writing library : x264 core 115 r2008 4c552d8
  24. Encoding settings : cabac=1 / ref=5 / deblock=1:0:0 / analyse=0x3:0x133 / me=umh / subme=7 / psy=1 / psy_rd=1.00:0.00 / mixed_ref=1 / me_range=16 / chroma_me=1 / trellis=1 / 8x8dct=1 / cqm=0 / deadzone=21,11 / fast_pskip=0 / chroma_qp_offset=-2 / threads=6 / sliced_threads=0 / nr=0 / decimate=1 / interlaced=0 / bluray_compat=0 / constrained_intra=0 / bframes=3 / b_pyramid=2 / b_adapt=2 / b_bias=0 / direct=3 / weightb=1 / open_gop=0 / weightp=2 / keyint=250 / keyint_min=23 / scenecut=40 / intra_refresh=0 / rc_lookahead=50 / rc=2pass / mbtree=1 / bitrate=10121 / ratetol=1.0 / qcomp=0.60 / qpmin=0 / qpmax=69 / qpstep=4 / cplxblur=20.0 / qblur=0.5 / ip_ratio=1.40 / aq=1:1.00
  25. Language : English
  26. Default : No
  27. Forced : No

  28. Audio
  29. ID : 1
  30. Format : DTS
  31. Format/Info : Digital Theater Systems
  32. Codec ID : A_DTS
  33. Duration : 1 h 20 min
  34. Bit rate mode : Constant
  35. Bit rate : 1 509 kb/s
  36. Channel(s) : 6 channels
  37. Channel layout : C L R Ls Rs LFE
  38. Sampling rate : 48.0 kHz
  39. Frame rate : 93.750 FPS (512 SPF)
  40. Bit depth : 24 bits
  41. Compression mode : Lossy
  42. Stream size : 872 MiB (13%)
  43. Language: Finnish
  44. Default : Yes
  45. Forced : No

  46. Text #1
  47. ID : 2
  48. Format : UTF-8
  49. Codec ID : S_TEXT/UTF8
  50. Codec ID/Info : UTF-8 Plain Text
  51. Language : Finnish
  52. Default : No
  53. Forced : No

  54. Text #2
  55. ID : 3
  56. Format : UTF-8
  57. Codec ID : S_TEXT/UTF8
  58. Codec ID/Info : UTF-8 Plain Text
  59. Language : English
  60. Default : Yes
  61. Forced : No

  62. Text #3
  63. ID : 4
  64. Format : UTF-8
  65. Codec ID : S_TEXT/UTF8
  66. Codec ID/Info : UTF-8 Plain Text
  67. Language : Finnish
  68. Default : No
  69. Forced : No

  70. Text #4
  71. ID : 5
  72. Format : UTF-8
  73. Codec ID : S_TEXT/UTF8
  74. Codec ID/Info : UTF-8 Plain Text
  75. Language : Swedish
  76. Default : No
  77. Forced : No
复制代码


精彩剧照




蓝光高清网提示您 点击下方附件名称 马上开始下载



温馨提示:
本站资源优先使用迅雷下载,迅雷会员下载,速度基本可以跑满宽带
如果遇到无资源或者版权问题无法下载,推荐使用115网盘离线下载(点击查看115网盘离线下载教程


  • 该资源需要您回复以后 刷新网页进行下载操作

  • 1、Hella.W.2011.1080p.BluRay.x264-MCHD.torrent 33KB 已下载 0 次

加入蓝光高清网VIP会员  无限制下载本站所有资源---点此加入

资源下载、资源播放、字幕使用、无法下载等常见问题---点这里

回复

使用道具 举报

精彩评论23

vIjzVwKC 发表于 2019-10-21 10:12:15 | 显示全部楼层
路过,学习下

加入蓝光高清网VIP会员  无限制下载本站所有资源---点此加入

资源下载、资源播放、字幕使用、无法下载等常见问题---点这里

回复

使用道具 举报

光神武帝 发表于 2019-10-21 10:48:18 | 显示全部楼层
谢谢分享

加入蓝光高清网VIP会员  无限制下载本站所有资源---点此加入

资源下载、资源播放、字幕使用、无法下载等常见问题---点这里

回复

使用道具 举报

dazidan 发表于 2019-10-21 11:15:35 | 显示全部楼层
lkjlsdfadfsfasasdfasfa

加入蓝光高清网VIP会员  无限制下载本站所有资源---点此加入

资源下载、资源播放、字幕使用、无法下载等常见问题---点这里

回复

使用道具 举报

江淮四 发表于 2019-10-21 12:29:02 | 显示全部楼层
sfweoeroiqwetasd!

加入蓝光高清网VIP会员  无限制下载本站所有资源---点此加入

资源下载、资源播放、字幕使用、无法下载等常见问题---点这里

回复

使用道具 举报

poimen777 发表于 2019-10-21 12:39:12 | 显示全部楼层
等好久这个资源了

加入蓝光高清网VIP会员  无限制下载本站所有资源---点此加入

资源下载、资源播放、字幕使用、无法下载等常见问题---点这里

回复

使用道具 举报

zhh_2688 发表于 2019-10-21 13:46:09 | 显示全部楼层
谢谢楼主分享

加入蓝光高清网VIP会员  无限制下载本站所有资源---点此加入

资源下载、资源播放、字幕使用、无法下载等常见问题---点这里

回复

使用道具 举报

Almaktoum 发表于 2019-10-21 14:53:46 | 显示全部楼层
下载试一试

加入蓝光高清网VIP会员  无限制下载本站所有资源---点此加入

资源下载、资源播放、字幕使用、无法下载等常见问题---点这里

回复

使用道具 举报

冷眼看烟花 发表于 2019-10-21 15:19:24 | 显示全部楼层
楼主发贴辛苦了,谢谢楼主分享!

加入蓝光高清网VIP会员  无限制下载本站所有资源---点此加入

资源下载、资源播放、字幕使用、无法下载等常见问题---点这里

回复

使用道具 举报

3233340 发表于 2019-10-21 16:15:52 | 显示全部楼层
楼主幸苦了

加入蓝光高清网VIP会员  无限制下载本站所有资源---点此加入

资源下载、资源播放、字幕使用、无法下载等常见问题---点这里

回复

使用道具 举报

懒得打字嘛,点击右侧快捷回复
高级模式
B Color Image Link Quote Code Smilies 上传

本版积分规则

关注0

粉丝0

帖子68439

发布主题
最新电影 论坛
广告位
联系我们
点击这里联系客服

服务时间:
周一到周日8:00-23:30

  • 打开微信扫一扫
    关注公众号

  • 手机QQ扫一扫
    添加客服

Archiver手机版蓝光高清网 ( 渝ICP备18006373号-2 )|网站地图

Powered by Discuz! X3.4  © 2001-2013 Comsenz Inc.