[剧情] 罪与罚 Crime.and.Punishment.1983.1080p.BluRay.x264-MCHD 6.56GB

[复制链接]
蓝鸟VIP会员 永久VIP 发表于 2019-10-21 10:00:21 | 显示全部楼层 |阅读模式 打印 上一主题 下一主题

马上注册,轻松下载,海量资源,让你轻松玩转社区。

您需要 登录 才可以下载或查看,没有帐号?立即注册

x


译  名 罪与罚 / Crime and Punishment
片  名 Rikos ja rangaistus
年  代 1983
产  地 芬兰
类  别 剧情 / 犯罪
语  言 芬兰语
上映日期 1983-12-02
IMDb评分  7.1/10 from 1938 users
IMDb链接  https://www.imdb.com/title/tt0086199
豆瓣评分 7.1/10 from 782 users
豆瓣链接 https://movie.douban.com/subject/1401893/
片  长 USA: 93 分钟
导  演 Aki Kaurism?ki
编  剧 Aki Kaurism?ki
主  演 Markku Toikka
       Aino Seppo
       Esko Nikkari
       Olli Tuominen
       Hannu Lauri


标  签 芬兰 | 阿基·考里斯马基 | 芬兰电影 | 1983 | AkiKaurism?ki | 1980s | Aki_Kaurism?ki | 名著改编

简  介  

  陀思妥耶夫斯基的文妹名著曾多次搬上银幕,本版把它搬到当今的赫尔辛基。主角是一个曾经妹过法律的屠宰场工人(跟咱们的北大肉店老板似的),三年前女友被车撞死,司机逃逸。如今,他发现了肇事者,并将他杀死。有一个女子知道他的杀人真相和他的身份,但并没有告发他,而是跟他陷入一桩没有前途的恋爱关系...
  作为文妹片,本片并不忠实,但它逼真地再现了原作的压抑和阴郁,人物刻画很妇感情色彩,很多细枝末节被舍弃,只留下主要人物的眼神和动作,堪称简约主义风格之作。《罪与罚》有1935年的美国版,总体水准不高,但不乏新意;1958年的法国版把剧情搬到了巴黎,后改名《最危险的罪》;1959年的美国新版也作了更新,讲一个妹法律的妹生涉入抢劫谋杀等罪案。1969年的苏联版长达3小时20分钟,更贴近原著;2002年的英国电视剧版是另一个以忠实再现见长的版本。--正太猫


该资源信息参数
  1. Video
  2. ID                                       : 1
  3. Format                                   : AVC
  4. Format/Info                              : Advanced Video Codec
  5. Format profile                           : High@L4
  6. Format settings                          : CABAC / 4 Ref Frames
  7. Format settings, CABAC                   : Yes
  8. Format settings, Reference frames        : 4 frames
  9. Codec ID                                 : V_MPEG4/ISO/AVC
  10. Duration                                 : 1 h 33 min
  11. Bit rate                                 : 9 321 kb/s
  12. Width                                    : 1 792 pixels
  13. Height                                   : 1 080 pixels
  14. Display aspect ratio                     : 5:3
  15. Frame rate mode                          : Constant
  16. Frame rate                               : 23.976 (24000/1001) FPS
  17. Color space                              : YUV
  18. Chroma subsampling                       : 4:2:0
  19. Bit depth                                : 8 bits
  20. Scan type                                : Progressive
  21. Bits/(Pixel*Frame)                       : 0.201
  22. Stream size                              : 5.93 GiB (90%)
  23. Writing library                          : x264 core 142 r2389 956c8d8
  24. Encoding settings                        : cabac=1 / ref=4 / deblock=1:0:0 / analyse=0x3:0x133 / me=umh / subme=7 / psy=1 / psy_rd=1.00:0.00 / mixed_ref=1 / me_range=16 / chroma_me=1 / trellis=1 / 8x8dct=1 / cqm=0 / deadzone=21,11 / fast_pskip=0 / chroma_qp_offset=-2 / threads=6 / lookahead_threads=1 / sliced_threads=0 / nr=0 / decimate=1 / interlaced=0 / bluray_compat=0 / constrained_intra=0 / bframes=3 / b_pyramid=2 / b_adapt=2 / b_bias=0 / direct=3 / weightb=1 / open_gop=0 / weightp=2 / keyint=250 / keyint_min=23 / scenecut=40 / intra_refresh=0 / rc_lookahead=50 / rc=2pass / mbtree=1 / bitrate=9321 / ratetol=1.0 / qcomp=0.60 / qpmin=0 / qpmax=69 / qpstep=4 / cplxblur=20.0 / qblur=0.5 / ip_ratio=1.40 / aq=1:1.00
  25. Language                                 : English
  26. Default                                  : No
  27. Forced                                   : No

  28. Audio
  29. ID                                       : 2
  30. Format                                   : DTS
  31. Format/Info                              : Digital Theater Systems
  32. Codec ID                                 : A_DTS
  33. Duration                                 : 1 h 33 min
  34. Bit rate mode                            : Constant
  35. Bit rate                                 : 768 kb/s
  36. Channel(s)                               : 1 channel
  37. Channel layout                           : C
  38. Sampling rate                            : 48.0 kHz
  39. Frame rate                               : 93.750 FPS (512 SPF)
  40. Bit depth                                : 24 bits
  41. Compression mode                         : Lossy
  42. Stream size                              : 511 MiB (8%)
  43. Language                                 : Finnish
  44. Default                                  : Yes
  45. Forced                                   : No

  46. Text
  47. ID                                       : 3
  48. Format                                   : UTF-8
  49. Codec ID                                 : S_TEXT/UTF8
  50. Codec ID/Info                            : UTF-8 Plain Text
  51. Language                                 : English
  52. Default                                  : Yes
  53. Forced                                   : No

  54. Menu
  55. 00:00:00.000                             : en:00:00:00.000
  56. 00:04:48.747                             : en:00:04:48.747
  57. 00:13:03.574                             : en:00:13:03.574
  58. 00:17:36.055                             : en:00:17:36.055
  59. 00:24:07.988                             : en:00:24:07.988
  60. 00:29:19.549                             : en:00:29:19.549
  61. 00:35:56.071                             : en:00:35:56.071
  62. 00:42:17.827                             : en:00:42:17.827
  63. 00:48:19.522                             : en:00:48:19.522
  64. 00:53:20.864                             : en:00:53:20.864
  65. 01:02:43.969                             : en:01:02:43.969
  66. 01:06:43.041                             : en:01:06:43.041
  67. 01:10:35.314                             : en:01:10:35.314
  68. 01:17:00.825                             : en:01:17:00.825
  69. 01:23:35.802                             : en:01:23:35.802
  70. 01:27:31.830                             : en:01:27:31.830
复制代码


精彩剧照




蓝光高清网提示您 点击下方附件名称 马上开始下载



温馨提示:
本站资源优先使用迅雷下载,迅雷会员下载,速度基本可以跑满宽带
如果遇到无资源或者版权问题无法下载,推荐使用115网盘离线下载(点击查看115网盘离线下载教程


  • 该资源需要您回复以后 刷新网页进行下载操作

  • 1、Crime.and.Punishment.1983.1080p.BluRay.x264-MCHD.torrent 33KB 已下载 0 次

加入蓝光高清网VIP会员  无限制下载本站所有资源---点此加入

资源下载、资源播放、字幕使用、无法下载等常见问题---点这里

回复

使用道具 举报

精彩评论18

xxxlr 发表于 2019-10-21 10:22:30 | 显示全部楼层
sfweoeroiqwetasd!

加入蓝光高清网VIP会员  无限制下载本站所有资源---点此加入

资源下载、资源播放、字幕使用、无法下载等常见问题---点这里

回复

使用道具 举报

feidiyasi 发表于 2019-10-21 10:53:21 | 显示全部楼层
楼主,大恩不言谢了!

加入蓝光高清网VIP会员  无限制下载本站所有资源---点此加入

资源下载、资源播放、字幕使用、无法下载等常见问题---点这里

回复

使用道具 举报

wildwood 发表于 2019-10-21 12:18:41 | 显示全部楼层
好好 学习了 确实不错

加入蓝光高清网VIP会员  无限制下载本站所有资源---点此加入

资源下载、资源播放、字幕使用、无法下载等常见问题---点这里

回复

使用道具 举报

zyf1983 发表于 2019-10-21 12:49:51 | 显示全部楼层
收藏了  谢谢

加入蓝光高清网VIP会员  无限制下载本站所有资源---点此加入

资源下载、资源播放、字幕使用、无法下载等常见问题---点这里

回复

使用道具 举报

render 发表于 2019-10-21 13:31:01 | 显示全部楼层
罪与罚 Crime.and.Punishment.1983.1080p.BluRay.x264-MCHD 6.56GB

加入蓝光高清网VIP会员  无限制下载本站所有资源---点此加入

资源下载、资源播放、字幕使用、无法下载等常见问题---点这里

回复

使用道具 举报

lyglulu 发表于 2019-10-21 13:36:02 | 显示全部楼层
真是 收益 匪浅

加入蓝光高清网VIP会员  无限制下载本站所有资源---点此加入

资源下载、资源播放、字幕使用、无法下载等常见问题---点这里

回复

使用道具 举报

xujialong 发表于 2019-10-21 15:14:22 | 显示全部楼层
谢谢分享

加入蓝光高清网VIP会员  无限制下载本站所有资源---点此加入

资源下载、资源播放、字幕使用、无法下载等常见问题---点这里

回复

使用道具 举报

rexpan 发表于 2019-10-21 15:45:05 | 显示全部楼层
蓝光高清网是个好地方

加入蓝光高清网VIP会员  无限制下载本站所有资源---点此加入

资源下载、资源播放、字幕使用、无法下载等常见问题---点这里

回复

使用道具 举报

Freeupload 发表于 2019-10-21 16:42:14 | 显示全部楼层
希望蓝光高清网越来越好

加入蓝光高清网VIP会员  无限制下载本站所有资源---点此加入

资源下载、资源播放、字幕使用、无法下载等常见问题---点这里

回复

使用道具 举报

懒得打字嘛,点击右侧快捷回复
高级模式
B Color Image Link Quote Code Smilies 上传

本版积分规则

关注0

粉丝0

帖子68439

发布主题
最新电影 论坛
广告位
联系我们
点击这里联系客服

服务时间:
周一到周日8:00-23:30

  • 打开微信扫一扫
    关注公众号

  • 手机QQ扫一扫
    添加客服

Archiver手机版蓝光高清网 ( 渝ICP备18006373号-2 )|网站地图

Powered by Discuz! X3.4  © 2001-2013 Comsenz Inc.