[恐怖] 谁在偷看奥利弗 Whos.Watching.Oliver.2017.1080p.BluRay.x264.DTS-FGT 7.83GB

[复制链接]
蓝鸟 发表于 2019-10-21 10:03:00 | 显示全部楼层 |阅读模式 打印 上一主题 下一主题
谁在偷看奥利弗 Whos.Watching.Oliver.2017.1080p.BluRay.x264.DTS-FGT 7.83GB-1.png

译  名 谁在偷看奥利弗
片  名 Who"s Watching Oliver
年  代 2017
产  地 泰国 / 美国
类  别 剧情 / 恐怖
语  言 英语
上映日期 2017-02(美国)
IMDb评分  5.1/10 from 542 users
IMDb链接  https://www.imdb.com/title/tt6158692
豆瓣评分 0/10 from 0 users
豆瓣链接 https://movie.douban.com/subject/26981707/
片  长 87分钟
导  演 Richie Moore
编  剧 Russell Geoffrey Banks / Raimund Huber
主  演 Russell Geoffrey Banks
       莎拉·玛卢库·莱恩 Sara Malakul Lane


标  签 暴力 | 恐怖 | 心理 | 美国 | 养眼 | cult | NCxNR

简  介  

  Who"s watching Oliver tells the story of a mentally unstable loner lost in a life forced upon him. By night Oliver aimlessly wanders the streets and bars on what can only be described as a truly shocking and humiliating killing spree. His only savior and possible way out of a life he is desperate to escape comes in the form of the beautiful Sophia with her sweet eccentricity and naivety to the danger she has put herself in.


该资源信息参数
  1. Video
  2. ID                                       : 1
  3. Format                                   : AVC
  4. Format/Info                              : Advanced Video Codec
  5. Format profile                           : High@L4
  6. Format settings                          : CABAC / 4 Ref Frames
  7. Format settings, CABAC                   : Yes
  8. Format settings, Reference frames        : 4 frames
  9. Codec ID                                 : V_MPEG4/ISO/AVC
  10. Duration                                 : 1 h 26 min
  11. Bit rate                                 : 11.5 Mb/s
  12. Width                                    : 1 920 pixels
  13. Height                                   : 816 pixels
  14. Display aspect ratio                     : 2.35:1
  15. Frame rate mode                          : Constant
  16. Frame rate                               : 23.976 (24000/1001) FPS
  17. Color space                              : YUV
  18. Chroma subsampling                       : 4:2:0
  19. Bit depth                                : 8 bits
  20. Scan type                                : Progressive
  21. Bits/(Pixel*Frame)                       : 0.306
  22. Stream size                              : 6.92 GiB (88%)
  23. Title                                    : Whos.Watching.Oliver.2017.1080p.BluRay.x264.DTS-FGT
  24. Writing library                          : x264 core 148 r2795M aaa9aa8
  25. Encoding settings                        : cabac=1 / ref=4 / deblock=1:-2:-2 / analyse=0x3:0x113 / me=umh / subme=9 / psy=1 / psy_rd=1.00:0.15 / mixed_ref=1 / me_range=16 / chroma_me=1 / trellis=2 / 8x8dct=1 / cqm=0 / deadzone=21,11 / fast_pskip=1 / chroma_qp_offset=-3 / threads=72 / lookahead_threads=3 / sliced_threads=0 / nr=0 / decimate=1 / interlaced=0 / bluray_compat=0 / constrained_intra=0 / bframes=3 / b_pyramid=2 / b_adapt=1 / b_bias=0 / direct=3 / weightb=1 / open_gop=0 / weightp=2 / keyint=250 / keyint_min=25 / scenecut=40 / intra_refresh=0 / rc_lookahead=50 / rc=2pass / mbtree=1 / bitrate=11500 / ratetol=1.0 / qcomp=0.60 / qpmin=0 / qpmax=69 / qpstep=4 / cplxblur=20.0 / qblur=0.5 / vbv_maxrate=31250 / vbv_bufsize=31250 / nal_hrd=none / filler=0 / ip_ratio=1.40 / aq=1:1.00
  26. Language                                 : English
  27. Default                                  : Yes
  28. Forced                                   : No

  29. Audio
  30. ID                                       : 2
  31. Format                                   : DTS
  32. Format/Info                              : Digital Theater Systems
  33. Codec ID                                 : A_DTS
  34. Duration                                 : 1 h 26 min
  35. Bit rate mode                            : Constant
  36. Bit rate                                 : 1 509 kb/s
  37. Channel(s)                               : 6 channels
  38. Channel layout                           : C L R Ls Rs LFE
  39. Sampling rate                            : 48.0 kHz
  40. Frame rate                               : 93.750 FPS (512 SPF)
  41. Bit depth                                : 24 bits
  42. Compression mode                         : Lossy
  43. Stream size                              : 931 MiB (12%)
  44. Title                                    : Whos.Watching.Oliver.2017.1080p.BluRay.x264.DTS-FGT
  45. Language                                 : English
  46. Default                                  : Yes
  47. Forced                                   : No

  48. Text
  49. ID                                       : 3
  50. Format                                   : UTF-8
  51. Codec ID                                 : S_TEXT/UTF8
  52. Codec ID/Info                            : UTF-8 Plain Text
  53. Duration                                 : 1 h 24 min
  54. Bit rate                                 : 28 b/s
  55. Count of elements                        : 600
  56. Stream size                              : 17.7 KiB (0%)
  57. Language                                 : English
  58. Default                                  : Yes
  59. Forced                                   : No

  60. Menu
  61. 00:00:00.000                             : en:Chapter 1
  62. 00:11:52.253                             : en:Chapter 2
  63. 00:21:34.667                             : en:Chapter 3
  64. 00:31:55.621                             : en:Chapter 4
  65. 00:39:23.610                             : en:Chapter 5
  66. 00:47:01.818                             : en:Chapter 6
  67. 00:57:39.246                             : en:Chapter 7
  68. 01:10:31.017                             : en:Chapter 8
复制代码


精彩剧照

谁在偷看奥利弗 Whos.Watching.Oliver.2017.1080p.BluRay.x264.DTS-FGT 7.83GB-2.png 谁在偷看奥利弗 Whos.Watching.Oliver.2017.1080p.BluRay.x264.DTS-FGT 7.83GB-3.png 谁在偷看奥利弗 Whos.Watching.Oliver.2017.1080p.BluRay.x264.DTS-FGT 7.83GB-4.png


蓝光高清网提示您 点击下方附件名称 马上开始下载

Whos.Watching.Oliver.2017.1080p.BluRay.x264.DTS-FGT.torrent 
         (39.7 KB    阅读权限: 0)
加入蓝光高清网VIP会员  无限制下载本站所有资源---点这里

资源下载、资源播放、字幕使用、无法下载等常见问题---点这里
回复

使用道具 举报

精彩评论20

53kd 发表于 2019-10-21 10:43:01 | 显示全部楼层
收藏了  谢谢
回复

使用道具 举报

leeways 发表于 2019-10-21 14:11:46 | 显示全部楼层
感谢楼主的无私分享!
回复

使用道具 举报

jingmingg 发表于 2019-10-21 15:29:30 | 显示全部楼层
谢谢版主 希望坚持下去 好资源
回复

使用道具 举报

z18903119 发表于 2019-10-21 15:34:33 | 显示全部楼层
好电影 收藏了
回复

使用道具 举报

xxx1986815 发表于 2019-10-21 15:55:25 | 显示全部楼层
楼主,大恩不言谢了!
回复

使用道具 举报

ShevaXp 发表于 2019-10-21 16:05:35 | 显示全部楼层
楼主幸苦了
回复

使用道具 举报

yuhangit21 发表于 2019-10-21 17:19:12 | 显示全部楼层
lkjlsdfadfsfasasdfasfa
回复

使用道具 举报

Roodoo 发表于 2019-10-21 17:35:26 | 显示全部楼层
希望蓝光高清网越来越好
回复

使用道具 举报

文字交流 发表于 2019-10-21 18:37:38 | 显示全部楼层
楼主幸苦了
回复

使用道具 举报

您需要登录后才可以回帖 登录 | 立即注册

本版积分规则

关注0

粉丝1

帖子83879

发布主题
最新电影 论坛
本期活动
联系我们
点击这里联系客服

服务时间:
周一到周日8:00-23:30

  • 打开微信扫一扫
    关注公众号

  • 手机QQ扫一扫
    添加客服

手机版蓝光高清网 |网站地图

Powered by Discuz! X3.4  © 2001-2013 Comsenz Inc.