[惊悚] 幻影凶间/1408幻影凶间 1408.2007.DC.1080p.BluRay.x264-SiNNERS 7.95GB

[复制链接]
蓝鸟 发表于 2019-10-23 10:55:35 | 显示全部楼层 |阅读模式 打印 上一主题 下一主题
幻影凶间/1408幻影凶间 1408.2007.DC.1080p.BluRay.x264-SiNNERS 7.95GB-1.png

译  名 幻影凶间 / 1408幻影凶间 / 第1408号房间
片  名 1408
年  代 2007
产  地 美国
类  别 惊悚 / 恐怖
语  言 英语
上映日期 2007-06-22(美国)
IMDb评分  6.8/10 from 244675 users
IMDb链接  https://www.imdb.com/title/tt0450385
豆瓣评分 7.5/10 from 109882 users
豆瓣链接 https://movie.douban.com/subject/1793903/
片  长 104 分钟
导  演 米凯尔·哈弗斯特罗姆 Mikael H?fstr?m
编  剧 麦特?格林伯格 Matt Greenberg / 斯科特·亚历山大 Scott Alexander / 拉里·卡拉斯泽斯基 Larry Karaszewski / 斯蒂芬·金 Stephen King
主  演 约翰·库萨克 John Cusack
       塞缪尔·杰克逊 Samuel L. Jackson
       玛丽·麦克科马克 Mary McCormack
       杰西米·杰西卡·安东尼 Jasmine Jessica Anthony
       兰·卡琉 Len Cariou
       玛格特·莱斯特 Margot Leicester
       乔翰·厄布 Johann Urb
       安德鲁·李·波兹 Andrew Lee Potts
       托尼·夏尔赫布 Tony Shalhoub
       金·汤普森 Kim Thomson
       德鲁·鲍威尔 Drew Powell
       小伊塞亚·维特洛克 Isiah Whitlock Jr.
       宾尼·尤奎德兹 Benny Urquidez
       保罗·卡塞 Paul Kasey
       Walter Lewis
       Alexandra Silber
       William Armstrong
       Noah Lee Margetts


标  签 惊悚 | 恐怖 | 悬疑 | 美国 | StephenKing | 美国电影 | 1408 | JohnCusack

简  介  

  根据著名作家史蒂芬·金同名小说改编。恐怖小说家麦克(约翰·库萨克 饰)喜欢带着科妹设备到闹鬼的地方探险,以收集写作素材。这次他选择了海豚酒店,不顾酒店经理(塞缪尔·杰克逊 饰)的强烈劝阻,住进了曾有多名住客自杀的1408号房间。麦克如愿以偿的经历了很多恐怖事件,彻底改变了他之前对灵异现象的看法。当他终于承受不住一波一波的恐怖攻击,准备离开1408号房间时,最恐怖的事情发生了:他用尽办法也无法离开。


该资源信息参数
  1. Video
  2. ID                                       : 1
  3. Format                                   : AVC
  4. Format/Info                              : Advanced Video Codec
  5. Format profile                           : High@L4
  6. Format settings, CABAC                   : Yes
  7. Format settings, ReFrames                : 8 frames
  8. Codec ID                                 : V_MPEG4/ISO/AVC
  9. Duration                                 : 1 h 52 min
  10. Bit rate                                 : 8 606 kb/s
  11. Width                                    : 1 920 pixels
  12. Height                                   : 800 pixels
  13. Display aspect ratio                     : 2.40:1
  14. Frame rate mode                          : Constant
  15. Frame rate                               : 23.976 FPS
  16. Color space                              : YUV
  17. Chroma subsampling                       : 4:2:0
  18. Bit depth                                : 8 bits
  19. Scan type                                : Progressive
  20. Bits/(Pixel*Frame)                       : 0.234
  21. Stream size                              : 6.60 GiB (83%)
  22. Writing library                          : x264 core 57 svn-709C
  23. Encoding settings                        : cabac=1 / ref=5 / deblock=1:0:0 / analyse=0x3:0x113 / me=umh / fpel_cmp=sad / subme=7 / me-prepass=0 / brdo=1 / mixed_ref=1 / me_range=16 / chroma_me=1 / trellis=1 / 8x8dct=1 / cqm=0 / deadzone=21,11 / chroma_qp_offset=0 / threads=6 / nr=0 / decimate=1 / mbaff=0 / bframes=3 / b_pyramid=1 / b_adapt=1 / b_bias=0 / direct=1 / wpredb=1 / bime=1 / keyint=250 / keyint_min=25 / scenecut=40(pre) / rc=2pass / bitrate=8606 / ratetol=1.0 / rceq=\"blurCplx^(1-qComp)\" / qcomp=0.60 / qpmin=10 / qpmax=51 / qpstep=4 / cplxblur=20.0 / qblur=0.5 / ip_ratio=1.40 / pb_ratio=1.30
  24. Language                                 : English
  25. Default                                  : Yes
  26. Forced                                   : No

  27. Audio
  28. ID                                       : 2
  29. Format                                   : DTS
  30. Format/Info                              : Digital Theater Systems
  31. Mode                                     : 16
  32. Format settings, Endianness              : Big
  33. Codec ID                                 : A_DTS
  34. Duration                                 : 1 h 52 min
  35. Bit rate mode                            : Constant
  36. Bit rate                                 : 1 509 kb/s
  37. Channel(s)                               : 6 channels
  38. Channel positions                        : Front: L C R, Side: L R, LFE
  39. Sampling rate                            : 48.0 kHz
  40. Frame rate                               : 93.750 FPS (512 spf)
  41. Bit depth                                : 16 bits
  42. Compression mode                         : Lossy
  43. Stream size                              : 1.19 GiB (15%)
  44. Default                                  : Yes
  45. Forced                                   : No
复制代码


精彩剧照

幻影凶间/1408幻影凶间 1408.2007.DC.1080p.BluRay.x264-SiNNERS 7.95GB-2.png 幻影凶间/1408幻影凶间 1408.2007.DC.1080p.BluRay.x264-SiNNERS 7.95GB-3.png 幻影凶间/1408幻影凶间 1408.2007.DC.1080p.BluRay.x264-SiNNERS 7.95GB-4.png 幻影凶间/1408幻影凶间 1408.2007.DC.1080p.BluRay.x264-SiNNERS 7.95GB-5.png 幻影凶间/1408幻影凶间 1408.2007.DC.1080p.BluRay.x264-SiNNERS 7.95GB-6.png 幻影凶间/1408幻影凶间 1408.2007.DC.1080p.BluRay.x264-SiNNERS 7.95GB-7.png


蓝光高清网提示您 点击下方附件名称 马上开始下载

1408.2007.DC.1080p.BluRay.x264-SiNNERS.torrent 
         (79.99 KB    阅读权限: 0)
加入蓝光高清网VIP会员  无限制下载本站所有资源---点这里

资源下载、资源播放、字幕使用、无法下载等常见问题---点这里
回复

使用道具 举报

精彩评论115

qazwsxe123 发表于 2019-10-23 11:59:11 | 显示全部楼层
感谢楼主的无私分享!
回复

使用道具 举报

tifengying 发表于 2019-10-23 13:22:36 | 显示全部楼层
这个帖子不回对不起自己!我想我是一天也不能离开蓝光高清网了
回复

使用道具 举报

ivkoluc 发表于 2019-10-23 13:42:57 | 显示全部楼层
不错不错,楼主您辛苦了。。。
回复

使用道具 举报

xueyuming 发表于 2019-10-23 14:39:07 | 显示全部楼层
刷一波高清币,嘿嘿
回复

使用道具 举报

坏坏分子 发表于 2019-10-23 14:49:17 | 显示全部楼层
楼主幸苦了
回复

使用道具 举报

zhongwu1234 发表于 2019-10-23 16:00:44 | 显示全部楼层
不管怎么说就是支持,感谢版主的无私付出
回复

使用道具 举报

jklouj 发表于 2019-10-23 19:31:16 | 显示全部楼层
好电影 谢谢楼主分享
回复

使用道具 举报

mrjixiang 发表于 2019-10-23 19:37:26 | 显示全部楼层
谢谢版主 希望坚持下去 好资源
回复

使用道具 举报

ShunYea 发表于 2019-10-23 19:37:28 | 显示全部楼层
蓝光高清网是个好地方
回复

使用道具 举报

您需要登录后才可以回帖 登录 | 立即注册

本版积分规则

关注0

粉丝1

帖子83848

发布主题
最新电影 论坛
本期活动
联系我们
点击这里联系客服

服务时间:
周一到周日8:00-23:30

  • 打开微信扫一扫
    关注公众号

  • 手机QQ扫一扫
    添加客服

手机版蓝光高清网 |网站地图

Powered by Discuz! X3.4  © 2001-2013 Comsenz Inc.