[剧情片] 顿巴斯 Donbass.2018.LiMiTED.REPACK.720p.BluRay.x264-CADAVER 5.47GB

[复制链接]
蓝鸟VIP会员 永久VIP 发表于 2019-10-23 13:31:18 | 显示全部楼层 |阅读模式 打印 上一主题 下一主题

马上注册,轻松下载,海量资源,让你轻松玩转社区。

您需要 登录 才可以下载或查看,没有帐号?立即注册

x


译  名 顿巴斯 / Donbass / 疯狂的边境(港) / 着魔的国境(台)
片  名 Донбас
年  代 2018
产  地 德国 / 乌克兰 / 法国 / 荷兰 / 罗马尼亚
类  别 剧情
语  言 乌克兰语 / 俄语
上映日期 2018-05-09(戛纳电影节) / 2018-08-30(德国) / 2018-09-26(法国)
IMDb评分  6.7/10 from 2300 users
IMDb链接  https://www.imdb.com/title/tt8282042
豆瓣评分 6.0/10 from 505 users
豆瓣链接 https://movie.douban.com/subject/27098584/
片  长 121分钟
导  演 谢尔盖·洛兹尼查 Sergei Loznitsa
编  剧 谢尔盖·洛兹尼查 Sergei Loznitsa
主  演 瓦列留·安德留察 Valeriu Andriuta
       鲍里斯·卡莫尔津 Boris Kamorzin
       谢尔盖·科列索夫 Sergei Kolesov


标  签 乌克兰 | 2018 | 战争 | 政治 | 德国 | 剧情 | 戛纳电影节 | 罗马尼亚

简  介  

  一场战争在乌克兰东部的顿巴斯爆发,由此衍生出军事冲突、犯罪行动以及分裂主义者主导的大肆劫掠。在顿巴斯,战争已是常态,政府宣传自诩真相之源,仇恨变成了爱的方式。走入顿巴斯,就像踏上一场疯狂的旅行,悲剧和荒谬与生死相交织。这并不是一个关于某个地区、某个国家或某种政治体系的故 事,而是展示了一个迷失于谎言与真相,寻找自我身份的失落的世界,这事关我们每一个人。

获奖情况  

  第71届戛纳电影节(2018)
  一种关注单元 一种关注大奖(提名) 谢尔盖·洛兹尼察
  一种关注单元 最佳导演 谢尔盖·洛兹尼察

  第48届鹿特丹国际电影节(2019)
  KNF奖(提名) 谢尔盖·洛兹尼察


该资源信息参数
  1. Video
  2. ID                                       : 2
  3. Format                                   : AVC
  4. Format/Info                              : Advanced Video Codec
  5. Format profile                           : High@L4
  6. Format settings                          : CABAC / 12 Ref Frames
  7. Format settings, CABAC                   : Yes
  8. Format settings, Reference frames        : 12 frames
  9. Codec ID                                 : V_MPEG4/ISO/AVC
  10. Duration                                 : 2 h 1 min
  11. Bit rate                                 : 4 924 kb/s
  12. Width                                    : 1 280 pixels
  13. Height                                   : 536 pixels
  14. Display aspect ratio                     : 2.40:1
  15. Frame rate mode                          : Constant
  16. Frame rate                               : 23.976 (24000/1001) FPS
  17. Color space                              : YUV
  18. Chroma subsampling                       : 4:2:0
  19. Bit depth                                : 8 bits
  20. Scan type                                : Progressive
  21. Bits/(Pixel*Frame)                       : 0.299
  22. Stream size                              : 4.18 GiB (77%)
  23. Writing library                          : x264 core 157 r2969 d4099dd
  24. Encoding settings                        : cabac=1 / ref=12 / deblock=1:-3:-3 / analyse=0x3:0x133 / me=umh / subme=9 / psy=1 / psy_rd=1.00:0.00 / mixed_ref=1 / me_range=24 / chroma_me=1 / trellis=1 / 8x8dct=1 / cqm=0 / deadzone=21,11 / fast_pskip=0 / chroma_qp_offset=-2 / threads=17 / lookahead_threads=2 / sliced_threads=0 / nr=0 / decimate=1 / interlaced=0 / bluray_compat=0 / constrained_intra=0 / bframes=8 / b_pyramid=2 / b_adapt=2 / b_bias=0 / direct=3 / weightb=1 / open_gop=0 / weightp=2 / keyint=250 / keyint_min=23 / scenecut=40 / intra_refresh=0 / rc_lookahead=60 / rc=2pass / mbtree=1 / bitrate=4924 / ratetol=1.0 / qcomp=0.60 / qpmin=0 / qpmax=69 / qpstep=4 / cplxblur=20.0 / qblur=0.5 / vbv_maxrate=62500 / vbv_bufsize=78125 / nal_hrd=none / filler=0 / ip_ratio=1.40 / aq=1:1.00
  25. Default                                  : Yes
  26. Forced                                   : No

  27. Audio
  28. ID                                       : 3
  29. Format                                   : DTS
  30. Format/Info                              : Digital Theater Systems
  31. Codec ID                                 : A_DTS
  32. Duration                                 : 2 h 1 min
  33. Bit rate mode                            : Constant
  34. Bit rate                                 : 1 509 kb/s
  35. Channel(s)                               : 6 channels
  36. Channel layout                           : C L R Ls Rs LFE
  37. Sampling rate                            : 48.0 kHz
  38. Frame rate                               : 93.750 FPS (512 SPF)
  39. Bit depth                                : 24 bits
  40. Compression mode                         : Lossy
  41. Stream size                              : 1.28 GiB (23%)
  42. Language                                 : Russian
  43. Default                                  : Yes
  44. Forced                                   : No

  45. Text
  46. ID                                       : 1
  47. Format                                   : UTF-8
  48. Codec ID                                 : S_TEXT/UTF8
  49. Codec ID/Info                            : UTF-8 Plain Text
  50. Duration                                 : 1 h 55 min
  51. Bit rate                                 : 45 b/s
  52. Count of elements                        : 1422
  53. Stream size                              : 38.4 KiB (0%)
  54. Language                                 : English
  55. Default                                  : Yes
  56. Forced                                   : No

  57. Menu
  58. 00:00:00.000                             : en:Chapter 01
  59. 00:08:38.852                             : en:Chapter 02
  60. 00:18:34.613                             : en:Chapter 03
  61. 00:33:32.886                             : en:Chapter 04
  62. 00:41:13.096                             : en:Chapter 05
  63. 00:49:56.202                             : en:Chapter 06
  64. 01:00:18.865                             : en:Chapter 07
  65. 01:08:33.484                             : en:Chapter 08
  66. 01:19:18.295                             : en:Chapter 09
  67. 01:27:50.891                             : en:Chapter 10
  68. 01:40:25.728                             : en:Chapter 11
  69. 01:47:07.671                             : en:Chapter 12
复制代码


精彩剧照









蓝光高清网提示您 点击下方附件名称 马上开始下载



温馨提示:
本站资源优先使用迅雷下载,迅雷会员下载,速度基本可以跑满宽带
如果遇到无资源或者版权问题无法下载,推荐使用115网盘离线下载(点击查看115网盘离线下载教程


  • 该资源需要您回复以后 刷新网页进行下载操作

  • 1、Donbass.2018.LiMiTED.REPACK.720p.BluRay.x264-CADAVER.torrent 28KB 已下载 0 次

加入蓝光高清网VIP会员  无限制下载本站所有资源---点此加入

资源下载、资源播放、字幕使用、无法下载等常见问题---点这里

回复

使用道具 举报

精彩评论99

tianya0801 发表于 2019-10-23 14:29:03 | 显示全部楼层
下载试一试

加入蓝光高清网VIP会员  无限制下载本站所有资源---点此加入

资源下载、资源播放、字幕使用、无法下载等常见问题---点这里

回复

使用道具 举报

haifengl 发表于 2019-10-23 14:54:19 | 显示全部楼层
希望蓝光高清网越来越好

加入蓝光高清网VIP会员  无限制下载本站所有资源---点此加入

资源下载、资源播放、字幕使用、无法下载等常见问题---点这里

回复

使用道具 举报

yfluo 发表于 2019-10-23 15:09:31 | 显示全部楼层
刷一波高清币,嘿嘿

加入蓝光高清网VIP会员  无限制下载本站所有资源---点此加入

资源下载、资源播放、字幕使用、无法下载等常见问题---点这里

回复

使用道具 举报

oldmarco 发表于 2019-10-23 16:31:07 | 显示全部楼层
谢谢分享

加入蓝光高清网VIP会员  无限制下载本站所有资源---点此加入

资源下载、资源播放、字幕使用、无法下载等常见问题---点这里

回复

使用道具 举报

donghua 发表于 2019-10-23 16:56:50 | 显示全部楼层
等好久这个资源了

加入蓝光高清网VIP会员  无限制下载本站所有资源---点此加入

资源下载、资源播放、字幕使用、无法下载等常见问题---点这里

回复

使用道具 举报

掐死你的温柔 发表于 2019-10-23 17:06:57 | 显示全部楼层
哈哈 谢谢 谢谢

加入蓝光高清网VIP会员  无限制下载本站所有资源---点此加入

资源下载、资源播放、字幕使用、无法下载等常见问题---点这里

回复

使用道具 举报

王骏 发表于 2019-10-23 19:21:36 | 显示全部楼层
楼主,大恩不言谢了!

加入蓝光高清网VIP会员  无限制下载本站所有资源---点此加入

资源下载、资源播放、字幕使用、无法下载等常见问题---点这里

回复

使用道具 举报

520tool 发表于 2019-10-23 19:30:59 | 显示全部楼层
谢谢  下载了  3Q

加入蓝光高清网VIP会员  无限制下载本站所有资源---点此加入

资源下载、资源播放、字幕使用、无法下载等常见问题---点这里

回复

使用道具 举报

zyafei 发表于 2019-10-23 19:37:16 | 显示全部楼层
好电影 收藏了

加入蓝光高清网VIP会员  无限制下载本站所有资源---点此加入

资源下载、资源播放、字幕使用、无法下载等常见问题---点这里

回复

使用道具 举报

懒得打字嘛,点击右侧快捷回复
高级模式
B Color Image Link Quote Code Smilies 上传

本版积分规则

关注0

粉丝0

帖子68302

发布主题
最新电影 论坛
广告位
联系我们
点击这里联系客服

服务时间:
周一到周日8:00-23:30

  • 打开微信扫一扫
    关注公众号

  • 手机QQ扫一扫
    添加客服

Archiver手机版蓝光高清网 ( 渝ICP备18006373号-2 )|网站地图

Powered by Discuz! X3.4  © 2001-2013 Comsenz Inc.