[喜剧片] 撒旦的恐慌 Satanic.Panic.2019.1080p.BluRay.REMUX.AVC.DTS-HD.MA.5.1-FGT 15.10GB

[复制链接]
蓝鸟VIP会员 永久VIP 发表于 2019-10-23 13:40:40 | 显示全部楼层 |阅读模式 打印 上一主题 下一主题

马上注册,轻松下载,海量资源,让你轻松玩转社区。

您需要 登录 才可以下载或查看,没有帐号?立即注册

x
撒旦的恐慌 Satanic.Panic.2019.1080p.BluRay.REMUX.AVC.DTS-HD.MA.5.1-FGT 15.10GB-1.png

译  名 撒旦的恐慌
片  名 Satanic Panic
年  代 2019
产  地 美国
类  别 喜剧 / 恐怖
语  言 英语
上映日期 2019-09-06(美国)
IMDb评分  6.4/10 from 123 users
IMDb链接  http://www.imdb.com/title/tt8510350
豆瓣评分 0/10 from 0 users
豆瓣链接 https://movie.douban.com/subject/33409114/
片  长 85分钟
导  演 Chelsea Stardust Peters
编  剧 Ted Geoghegan / Grady Hendrix
主  演 丽贝卡·罗梅恩 Rebecca Romijn
       杰瑞·奥康奈尔 Jerry O"Connell
       乔丹·莱德 Jordan Ladd


标  签 恐怖 | 喜剧 | 美式恐怖 | 美國 | 美国电影 | 杰瑞·奥康奈尔 | 丽贝卡·罗梅恩 | ChelseaStardust

简  介  

  A pizza delivery girl at the end of her financial rope has to fight for her life - and her tips - when her last order of the night turns out to be high society Satanists in need of a virgin sacrifice.


该资源信息参数
  1. Video
  2. ID                                       : 1
  3. Format                                   : AVC
  4. Format/Info                              : Advanced Video Codec
  5. Format profile                           : High@L4
  6. Format settings                          : CABAC / 4 Ref Frames
  7. Format settings, CABAC                   : Yes
  8. Format settings, Reference frames        : 4 frames
  9. Codec ID                                 : V_MPEG4/ISO/AVC
  10. Duration                                 : 1 h 28 min
  11. Bit rate mode                            : Variable
  12. Bit rate                                 : 20.8 Mb/s
  13. Maximum bit rate                         : 36.0 Mb/s
  14. Width                                    : 1 920 pixels
  15. Height                                   : 1 080 pixels
  16. Display aspect ratio                     : 16:9
  17. Frame rate mode                          : Constant
  18. Frame rate                               : 23.976 (24000/1001) FPS
  19. Color space                              : YUV
  20. Chroma subsampling                       : 4:2:0
  21. Bit depth                                : 8 bits
  22. Scan type                                : Progressive
  23. Bits/(Pixel*Frame)                       : 0.419
  24. Stream size                              : 12.9 GiB (86%)
  25. Title                                    : Satanic.Panic.2019.1080p.BluRay.REMUX.AVC.DTS-HD.MA.5.1-FGT
  26. Language                                 : English
  27. Default                                  : No
  28. Forced                                   : No

  29. Audio
  30. ID                                       : 2
  31. Format                                   : DTS XLL
  32. Format/Info                              : Digital Theater Systems
  33. Commercial name                          : DTS-HD Master Audio
  34. Codec ID                                 : A_DTS
  35. Duration                                 : 1 h 28 min
  36. Bit rate mode                            : Variable
  37. Bit rate                                 : 3 500 kb/s
  38. Channel(s)                               : 6 channels
  39. Channel layout                           : C L R Ls Rs LFE
  40. Sampling rate                            : 48.0 kHz
  41. Frame rate                               : 93.750 FPS (512 SPF)
  42. Bit depth                                : 24 bits
  43. Compression mode                         : Lossless
  44. Stream size                              : 2.17 GiB (14%)
  45. Title                                    : Satanic.Panic.2019.1080p.BluRay.REMUX.AVC.DTS-HD.MA.5.1-FGT
  46. Language                                 : English
  47. Default                                  : Yes
  48. Forced                                   : No

  49. Text #1
  50. ID                                       : 3
  51. Format                                   : UTF-8
  52. Codec ID                                 : S_TEXT/UTF8
  53. Codec ID/Info                            : UTF-8 Plain Text
  54. Duration                                 : 1 h 22 min
  55. Bit rate                                 : 53 b/s
  56. Count of elements                        : 1112
  57. Stream size                              : 32.2 KiB (0%)
  58. Title                                    : English-SRT
  59. Language                                 : English
  60. Default                                  : Yes
  61. Forced                                   : No

  62. Text #2
  63. ID                                       : 4
  64. Format                                   : PGS
  65. Muxing mode                              : zlib
  66. Codec ID                                 : S_HDMV/PGS
  67. Codec ID/Info                            : Picture based subtitle format used on BDs/HD-DVDs
  68. Duration                                 : 1 h 25 min
  69. Bit rate                                 : 26.5 kb/s
  70. Count of elements                        : 2782
  71. Stream size                              : 16.2 MiB (0%)
  72. Title                                    : English-PGS
  73. Language                                 : English
  74. Default                                  : No
  75. Forced                                   : No

  76. Text #3
  77. ID                                       : 5
  78. Format                                   : PGS
  79. Muxing mode                              : zlib
  80. Codec ID                                 : S_HDMV/PGS
  81. Codec ID/Info                            : Picture based subtitle format used on BDs/HD-DVDs
  82. Duration                                 : 1 h 26 min
  83. Bit rate                                 : 22.4 kb/s
  84. Count of elements                        : 2214
  85. Stream size                              : 13.9 MiB (0%)
  86. Title                                    : Spanish-PGS
  87. Language                                 : Spanish
  88. Default                                  : No
  89. Forced                                   : No

  90. Text #4
  91. ID                                       : 6
  92. Format                                   : PGS
  93. Muxing mode                              : zlib
  94. Codec ID                                 : S_HDMV/PGS
  95. Codec ID/Info                            : Picture based subtitle format used on BDs/HD-DVDs
  96. Duration                                 : 1 h 26 min
  97. Bit rate                                 : 22.9 kb/s
  98. Count of elements                        : 2236
  99. Stream size                              : 14.2 MiB (0%)
  100. Title                                    : French-PGS
  101. Language                                 : French
  102. Default                                  : No
  103. Forced                                   : No

  104. Menu
  105. 00:00:00.000                             : en:Chapter 01
  106. 00:07:50.595                             : en:Chapter 02
  107. 00:25:05.003                             : en:Chapter 03
  108. 00:34:15.970                             : en:Chapter 04
  109. 00:42:38.222                             : en:Chapter 05
  110. 00:53:25.160                             : en:Chapter 06
  111. 01:07:14.363                             : en:Chapter 07
  112. 01:22:25.357                             : en:Chapter 08
复制代码


精彩剧照

撒旦的恐慌 Satanic.Panic.2019.1080p.BluRay.REMUX.AVC.DTS-HD.MA.5.1-FGT 15.10GB-2.png 撒旦的恐慌 Satanic.Panic.2019.1080p.BluRay.REMUX.AVC.DTS-HD.MA.5.1-FGT 15.10GB-3.png 撒旦的恐慌 Satanic.Panic.2019.1080p.BluRay.REMUX.AVC.DTS-HD.MA.5.1-FGT 15.10GB-4.png


蓝光高清网提示您 点击下方附件名称 马上开始下载

Satanic.Panic.2019.1080p.BluRay.REMUX.AVC.DTS-HD.MA.5.1-FGT.torrent (76.03 KB, 下载次数: 0)

加入蓝光高清网VIP会员  无限制下载本站所有资源---点此加入

资源下载、资源播放、字幕使用、无法下载等常见问题---点这里

回复

使用道具 举报

精彩评论101

any0129 发表于 2019-10-23 15:14:33 | 显示全部楼层
支持一下

加入蓝光高清网VIP会员  无限制下载本站所有资源---点此加入

资源下载、资源播放、字幕使用、无法下载等常见问题---点这里

回复

使用道具 举报

zhuoyan521 发表于 2019-10-23 15:30:01 | 显示全部楼层
哈哈 谢谢 谢谢

加入蓝光高清网VIP会员  无限制下载本站所有资源---点此加入

资源下载、资源播放、字幕使用、无法下载等常见问题---点这里

回复

使用道具 举报

情迷.恋 发表于 2019-10-23 19:37:06 | 显示全部楼层
lkjlsdfadfsfasasdfasfa

加入蓝光高清网VIP会员  无限制下载本站所有资源---点此加入

资源下载、资源播放、字幕使用、无法下载等常见问题---点这里

回复

使用道具 举报

zxcqazwsx 发表于 2019-10-23 19:37:26 | 显示全部楼层
不管怎么说就是支持,感谢版主的无私付出

加入蓝光高清网VIP会员  无限制下载本站所有资源---点此加入

资源下载、资源播放、字幕使用、无法下载等常见问题---点这里

回复

使用道具 举报

yamahar7 发表于 2019-10-23 19:37:26 | 显示全部楼层
lkjlsdfadfsfasasdfasfa

加入蓝光高清网VIP会员  无限制下载本站所有资源---点此加入

资源下载、资源播放、字幕使用、无法下载等常见问题---点这里

回复

使用道具 举报

hmhyb 发表于 2019-10-23 19:37:29 | 显示全部楼层
下载来看看

加入蓝光高清网VIP会员  无限制下载本站所有资源---点此加入

资源下载、资源播放、字幕使用、无法下载等常见问题---点这里

回复

使用道具 举报

comsenz.com.cn 发表于 2019-10-23 19:37:29 | 显示全部楼层
好资源 收藏了 谢谢分享

加入蓝光高清网VIP会员  无限制下载本站所有资源---点此加入

资源下载、资源播放、字幕使用、无法下载等常见问题---点这里

回复

使用道具 举报

kamzhou 发表于 2019-10-23 19:37:29 | 显示全部楼层
谢谢分享

加入蓝光高清网VIP会员  无限制下载本站所有资源---点此加入

资源下载、资源播放、字幕使用、无法下载等常见问题---点这里

回复

使用道具 举报

yuxiangflying 发表于 2019-10-23 19:37:29 | 显示全部楼层
下载来看看

加入蓝光高清网VIP会员  无限制下载本站所有资源---点此加入

资源下载、资源播放、字幕使用、无法下载等常见问题---点这里

回复

使用道具 举报

懒得打字嘛,点击右侧快捷回复
您需要登录后才可以回帖 登录 | 立即注册

本版积分规则

关注0

粉丝0

帖子68302

发布主题
最新电影 论坛
广告位
联系我们
点击这里联系客服

服务时间:
周一到周日8:00-23:30

  • 打开微信扫一扫
    关注公众号

  • 手机QQ扫一扫
    添加客服

Archiver手机版蓝光高清网 ( 渝ICP备18006373号-2 )|网站地图

Powered by Discuz! X3.4  © 2001-2013 Comsenz Inc.