[剧情片] 无畏 Dauntless.The.Battle.of.Midway.2019.1080p.BluRay.REMUX.AVC.DTS-HD.MA.5.1-FGT 26.16GB

[复制链接]
蓝鸟VIP会员 永久VIP 发表于 2019-10-23 13:41:36 | 显示全部楼层 |阅读模式 打印 上一主题 下一主题

马上注册,轻松下载,海量资源,让你轻松玩转社区。

您需要 登录 才可以下载或查看,没有帐号?立即注册

x
无畏 Dauntless.The.Battle.of.Midway.2019.1080p.BluRay.REMUX.AVC.DTS-HD.MA.5.1-FGT 26.16GB-1.png

译  名 无畏 / Dauntless: The Battle of Midway / 无畏:中途岛之战
片  名 Dauntless
年  代 2019
产  地 美国
类  别 剧情 / 战争
语  言 英语
上映日期 2019-09-01(美国)
IMDb链接  http://www.imdb.com/title/tt8685520
豆瓣评分 0/10 from 0 users
豆瓣链接 https://movie.douban.com/subject/33435782/
片  长 97分钟
导  演 迈克·菲利普斯 Mike Phillips
编  剧 亚当·克莱恩 Adam Klein
主  演 贾德·尼尔森 Judd Nelson
       德鲁·加勒特 Drew Garrett
       Aidan Bristow
       C·托马斯·豪威尔 C. Thomas Howell
       詹姆斯·奥斯汀·科尔 James Austin Kerr


标  签 战争 | 二战 | 2019 | 海战 | 太平洋战争

简  介  

  By June 1942, the Japanese Navy has swept across the Pacific. In an effort to change the course of the war, a United States carrier group is positioned off the coast of Midway, tasked with springing a trap on the enemy. During this pivotal battle, the two-man crew of a U.S. Navy dive bomber is forced to ditch in the sea. Set adrift, the men look qiwan.cc towards their comrades for rescue; namely, the ragtag crew of a PBY Catalina, who are sent to search for survivors. Amid the vast openness of the Pacific, with days passing and the chance of rescue fading, the men are forced to face their own mortality.


该资源信息参数
  1. Video
  2. ID                                       : 1
  3. Format                                   : AVC
  4. Format/Info                              : Advanced Video Codec
  5. Format profile                           : High@L4
  6. Format settings                          : CABAC / 4 Ref Frames
  7. Format settings, CABAC                   : Yes
  8. Format settings, Reference frames        : 4 frames
  9. Codec ID                                 : V_MPEG4/ISO/AVC
  10. Duration                                 : 1 h 37 min
  11. Bit rate mode                            : Constant
  12. Bit rate                                 : 34.2 Mb/s
  13. Nominal bit rate                         : 36.0 Mb/s
  14. Width                                    : 1 920 pixels
  15. Height                                   : 1 080 pixels
  16. Display aspect ratio                     : 16:9
  17. Frame rate mode                          : Constant
  18. Frame rate                               : 23.976 (24000/1001) FPS
  19. Color space                              : YUV
  20. Chroma subsampling                       : 4:2:0
  21. Bit depth                                : 8 bits
  22. Scan type                                : Progressive
  23. Bits/(Pixel*Frame)                       : 0.688
  24. Stream size                              : 23.4 GiB (89%)
  25. Title                                    : Dauntless.The.Battle.of.Midway.2019.1080p.BluRay.REMUX.AVC.DTS-HD.MA.5.1-FGT
  26. Language                                 : English
  27. Default                                  : No
  28. Forced                                   : No

  29. Audio #1
  30. ID                                       : 2
  31. Format                                   : DTS XLL
  32. Format/Info                              : Digital Theater Systems
  33. Commercial name                          : DTS-HD Master Audio
  34. Codec ID                                 : A_DTS
  35. Duration                                 : 1 h 37 min
  36. Bit rate mode                            : Variable
  37. Bit rate                                 : 2 446 kb/s
  38. Channel(s)                               : 6 channels
  39. Channel layout                           : C L R Ls Rs LFE
  40. Sampling rate                            : 48.0 kHz
  41. Frame rate                               : 93.750 FPS (512 SPF)
  42. Bit depth                                : 24 bits
  43. Compression mode                         : Lossless
  44. Stream size                              : 1.67 GiB (6%)
  45. Title                                    : Dauntless.The.Battle.of.Midway.2019.1080p.BluRay.REMUX.AVC.DTS-HD.MA.5.1-FGT
  46. Language                                 : English
  47. Default                                  : Yes
  48. Forced                                   : No

  49. Audio #2
  50. ID                                       : 3
  51. Format                                   : DTS XLL
  52. Format/Info                              : Digital Theater Systems
  53. Commercial name                          : DTS-HD Master Audio
  54. Codec ID                                 : A_DTS
  55. Duration                                 : 1 h 37 min
  56. Bit rate mode                            : Variable
  57. Bit rate                                 : 1 625 kb/s
  58. Channel(s)                               : 2 channels
  59. Channel layout                           : L R
  60. Sampling rate                            : 48.0 kHz
  61. Frame rate                               : 93.750 FPS (512 SPF)
  62. Bit depth                                : 24 bits
  63. Compression mode                         : Lossless
  64. Stream size                              : 1.11 GiB (4%)
  65. Title                                    : Dauntless.The.Battle.of.Midway.2019.1080p.BluRay.REMUX.AVC.DTS-HD.MA.5.1-FGT
  66. Language                                 : English
  67. Default                                  : No
  68. Forced                                   : No

  69. Text #1
  70. ID                                       : 4
  71. Format                                   : UTF-8
  72. Codec ID                                 : S_TEXT/UTF8
  73. Codec ID/Info                            : UTF-8 Plain Text
  74. Duration                                 : 1 h 31 min
  75. Bit rate                                 : 56 b/s
  76. Count of elements                        : 1357
  77. Stream size                              : 37.9 KiB (0%)
  78. Title                                    : English-SRT
  79. Language                                 : English
  80. Default                                  : Yes
  81. Forced                                   : No

  82. Text #2
  83. ID                                       : 5
  84. Format                                   : PGS
  85. Muxing mode                              : zlib
  86. Codec ID                                 : S_HDMV/PGS
  87. Codec ID/Info                            : Picture based subtitle format used on BDs/HD-DVDs
  88. Duration                                 : 1 h 34 min
  89. Bit rate                                 : 35.3 kb/s
  90. Count of elements                        : 2021
  91. Stream size                              : 23.8 MiB (0%)
  92. Title                                    : English-PGS
  93. Language                                 : English
  94. Default                                  : No
  95. Forced                                   : No

  96. Menu
  97. 00:00:00.000                             : en:Chapter 01
  98. 00:05:33.750                             : en:Chapter 02
  99. 00:15:38.687                             : en:Chapter 03
  100. 00:22:41.610                             : en:Chapter 04
  101. 00:38:21.299                             : en:Chapter 05
  102. 00:48:19.229                             : en:Chapter 06
  103. 00:52:43.618                             : en:Chapter 07
  104. 00:56:52.409                             : en:Chapter 08
  105. 01:01:26.557                             : en:Chapter 09
  106. 01:10:22.259                             : en:Chapter 10
  107. 01:16:00.013                             : en:Chapter 11
  108. 01:22:47.712                             : en:Chapter 12
复制代码


精彩剧照

无畏 Dauntless.The.Battle.of.Midway.2019.1080p.BluRay.REMUX.AVC.DTS-HD.MA.5.1-FGT 26.16GB-2.png 无畏 Dauntless.The.Battle.of.Midway.2019.1080p.BluRay.REMUX.AVC.DTS-HD.MA.5.1-FGT 26.16GB-3.png 无畏 Dauntless.The.Battle.of.Midway.2019.1080p.BluRay.REMUX.AVC.DTS-HD.MA.5.1-FGT 26.16GB-4.png


蓝光高清网提示您 点击下方附件名称 马上开始下载

Dauntless.The.Battle.of.Midway.2019.1080p.BluRay.REMUX.AVC.DTS-HD.MA.5.1-FGT.torrent (65.98 KB, 下载次数: 0)

加入蓝光高清网VIP会员  无限制下载本站所有资源---点此加入

资源下载、资源播放、字幕使用、无法下载等常见问题---点这里

回复

使用道具 举报

精彩评论97

Resha 发表于 2019-10-23 13:47:58 | 显示全部楼层
终于找到了  谢谢分享

加入蓝光高清网VIP会员  无限制下载本站所有资源---点此加入

资源下载、资源播放、字幕使用、无法下载等常见问题---点这里

回复

使用道具 举报

生活元素 发表于 2019-10-23 14:59:23 | 显示全部楼层
还是蓝光看起带劲 音效爆棚

加入蓝光高清网VIP会员  无限制下载本站所有资源---点此加入

资源下载、资源播放、字幕使用、无法下载等常见问题---点这里

回复

使用道具 举报

majias 发表于 2019-10-23 15:04:27 | 显示全部楼层
等好久这个资源了

加入蓝光高清网VIP会员  无限制下载本站所有资源---点此加入

资源下载、资源播放、字幕使用、无法下载等常见问题---点这里

回复

使用道具 举报

liurui1981 发表于 2019-10-23 16:00:44 | 显示全部楼层
不错不错,楼主您辛苦了。。。

加入蓝光高清网VIP会员  无限制下载本站所有资源---点此加入

资源下载、资源播放、字幕使用、无法下载等常见问题---点这里

回复

使用道具 举报

cream2 发表于 2019-10-23 16:26:06 | 显示全部楼层
真是 收益 匪浅

加入蓝光高清网VIP会员  无限制下载本站所有资源---点此加入

资源下载、资源播放、字幕使用、无法下载等常见问题---点这里

回复

使用道具 举报

yQcDBFDv 发表于 2019-10-23 16:51:49 | 显示全部楼层
这个帖子不回对不起自己!我想我是一天也不能离开蓝光高清网了

加入蓝光高清网VIP会员  无限制下载本站所有资源---点此加入

资源下载、资源播放、字幕使用、无法下载等常见问题---点这里

回复

使用道具 举报

shenpengss 发表于 2019-10-23 19:37:26 | 显示全部楼层
支持一下

加入蓝光高清网VIP会员  无限制下载本站所有资源---点此加入

资源下载、资源播放、字幕使用、无法下载等常见问题---点这里

回复

使用道具 举报

boy_1024 发表于 2019-10-23 19:37:27 | 显示全部楼层
好网站 希望越来越好

加入蓝光高清网VIP会员  无限制下载本站所有资源---点此加入

资源下载、资源播放、字幕使用、无法下载等常见问题---点这里

回复

使用道具 举报

toe2 发表于 2019-10-23 19:37:29 | 显示全部楼层
谢谢分享

加入蓝光高清网VIP会员  无限制下载本站所有资源---点此加入

资源下载、资源播放、字幕使用、无法下载等常见问题---点这里

回复

使用道具 举报

懒得打字嘛,点击右侧快捷回复
您需要登录后才可以回帖 登录 | 立即注册

本版积分规则

关注0

粉丝0

帖子68302

发布主题
最新电影 论坛
广告位
联系我们
点击这里联系客服

服务时间:
周一到周日8:00-23:30

  • 打开微信扫一扫
    关注公众号

  • 手机QQ扫一扫
    添加客服

Archiver手机版蓝光高清网 ( 渝ICP备18006373号-2 )|网站地图

Powered by Discuz! X3.4  © 2001-2013 Comsenz Inc.