开通会员
全站资源畅享下载
4k原盘抢先下载
免高清币下载
会员用户组特权
开通会员
上传
收藏
首页
开启左侧

[其它] 创造约翰·德罗宁 Framing.John.DeLorean.2019.1080p.BluRay.x264-BRMP 8.77GB

[复制链接]
蓝鸟 发表于 2019-10-25 10:15:05 | 显示全部楼层 |阅读模式 打印 上一主题 下一主题
 

加入蓝光高清网,轻松下载最新4k资源

您需要 登录 才可以下载或查看,没有帐号?立即注册

x
创造约翰·德罗宁 Framing.John.DeLorean.2019.1080p.BluRay.x264-BRMP 8.77GB-1.png

译  名 创造约翰·德罗宁 / DeLorean
片  名 Framing John Delorean
年  代 2019
产  地 美国
类  别 纪录片
语  言 英语
上映日期 2019-04-30(翠贝卡电影节) / 2019-06-07(美国)
IMDb评分  6.5/10 from 392 users
IMDb链接  https://www.imdb.com/title/tt6256978
豆瓣评分 0/10 from 0 users
豆瓣链接 https://movie.douban.com/subject/30240062/
片  长 109分钟
导  演 唐·阿格特 Don Argott / Sheena M. Joyce
编  剧 Dan Greeney / Alexandra Orton
主  演 亚历克·鲍德温 Alec Baldwin
       莫蕾娜·巴卡琳 Morena Baccarin
       乔西·查尔斯 Josh Charles
       迪恩·文特斯 Dean Winters
       迈克尔·瑞斯玻利 Michael Rispoli
       杰森·琼斯 Jason Jones
       达纳·艾什布鲁克 Dana Ashbrook
       乔什·库克 Josh Cooke
       凯拉·福斯特 Kayla Foster
       鲍勃·盖尔 Bob Gale
       Sean Cullen
       William Hill
       orter Kelly
       John DeLorean


标  签 纪录片 | 紀錄片 | 美国 | 犯罪 | 汽车 | 2019 | 2010s | 经典

简  介  

  科幻片《回到未来》那款可以穿越时空的跑车现实生活中曾批量生产过,但公司还没撑到电影上映就破产了。公司的创始人叫约翰·德罗宁,这个英国人曾被誉为史上最大胆的汽车商人,也可能是史上最大的汽车骗子。
  近日一部描述他的纪录片《创造约翰德罗宁》发布首款预告(时光网独家听译中字),《碟中谍6》男星,也就是经常在电视节目中模仿川普的亚历克·鲍德温扮演德罗宁本尊,《死侍》女星莫瑞娜·巴卡琳扮演德罗宁的超模妻子。
  《创造约翰德罗宁》不是一部单纯的纪录片,里面既有原型约翰·德罗宁、子女、同事等人的访谈、新闻资料,也有扮演他的亚历克·鲍德温的“场景重现”画面,甚至有亚历克·鲍德温在片场间隙的采访。算是纪录片+剧情片奇妙混合,将于今年6月7日在美国部分影院上映。
  德罗宁是一家已经消失的美国汽车制造厂,由汽车业高级主管,英国人约翰·德罗宁于1975年创立。它以生产与众不同具有鸥翼车门和不锈钢车体的德罗宁DMC-12汽车闻名于世。
  德罗宁跑车成名于在世界各地广受欢迎的《回到未来》电影,影片1985年上映,但德罗宁公司1982年就破产了。电影中德罗宁DMC-12跑车被古怪的科妹家埃米特·L·布朗博士改装成时间旅行机器,其形象成为普遍的大众回忆。
  由于公司破产,不再有新车出厂,DMC-12反而成为珍藏品。但直到今日,大量的DMC-12依然还在使用当中。一般估计,生产约9000辆的DMC-12中有6500辆仍在使用,许多由车主、爱好者形成的社团与俱乐部依然十分活跃,甚至成为一种特殊的文化。


该资源信息参数
  1. Video
  2. ID                                       : 1
  3. Format                                   : AVC
  4. Format/Info                              : Advanced Video Codec
  5. Format profile                           : High@L4
  6. Format settings                          : CABAC / 4 Ref Frames
  7. Format settings, CABAC                   : Yes
  8. Format settings, Reference frames        : 4 frames
  9. Codec ID                                 : V_MPEG4/ISO/AVC
  10. Duration                                 : 1 h 49 min
  11. Bit rate                                 : 9 967 kb/s
  12. Width                                    : 1 920 pixels
  13. Height                                   : 1 016 pixels
  14. Display aspect ratio                     : 1.890
  15. Frame rate mode                          : Constant
  16. Frame rate                               : 23.976 (24000/1001) FPS
  17. Color space                              : YUV
  18. Chroma subsampling                       : 4:2:0
  19. Bit depth                                : 8 bits
  20. Scan type                                : Progressive
  21. Bits/(Pixel*Frame)                       : 0.213
  22. Stream size                              : 7.59 GiB (87%)
  23. Writing library                          : x264 core 157 r2969 d4099dd
  24. Encoding settings                        : cabac=1 / ref=4 / deblock=1:0:0 / analyse=0x3:0x133 / me=umh / subme=7 / psy=1 / psy_rd=1.00:0.00 / mixed_ref=1 / me_range=16 / chroma_me=1 / trellis=1 / 8x8dct=1 / cqm=0 / deadzone=21,11 / fast_pskip=0 / chroma_qp_offset=-2 / threads=18 / lookahead_threads=3 / sliced_threads=0 / nr=0 / decimate=1 / interlaced=0 / bluray_compat=0 / constrained_intra=0 / bframes=3 / b_pyramid=2 / b_adapt=1 / b_bias=0 / direct=1 / weightb=1 / open_gop=0 / weightp=2 / keyint=240 / keyint_min=23 / scenecut=40 / intra_refresh=0 / rc_lookahead=40 / rc=2pass / mbtree=1 / bitrate=9967 / ratetol=1.0 / qcomp=0.60 / qpmin=10 / qpmax=51 / qpstep=4 / cplxblur=20.0 / qblur=0.5 / ip_ratio=1.40 / aq=1:1.00
  25. Default                                  : Yes
  26. Forced                                   : No

  27. Audio
  28. ID                                       : 2
  29. Format                                   : DTS
  30. Format/Info                              : Digital Theater Systems
  31. Codec ID                                 : A_DTS
  32. Duration                                 : 1 h 49 min
  33. Bit rate mode                            : Constant
  34. Bit rate                                 : 1 509 kb/s
  35. Channel(s)                               : 6 channels
  36. Channel layout                           : C L R Ls Rs LFE
  37. Sampling rate                            : 48.0 kHz
  38. Frame rate                               : 93.750 FPS (512 SPF)
  39. Bit depth                                : 24 bits
  40. Compression mode                         : Lossy
  41. Stream size                              : 1.15 GiB (13%)
  42. Language                                 : English
  43. Default                                  : Yes
  44. Forced                                   : No

  45. Menu
  46. 00:00:00.000                             : en:Chapter 01
  47. 00:09:54.385                             : en:Chapter 02
  48. 00:17:26.921                             : en:Chapter 03
  49. 00:26:30.255                             : en:Chapter 04
  50. 00:35:59.532                             : en:Chapter 05
  51. 00:42:54.572                             : en:Chapter 06
  52. 00:55:22.444                             : en:Chapter 07
  53. 01:04:10.055                             : en:Chapter 08
  54. 01:18:18.277                             : en:Chapter 09
  55. 01:33:06.206                             : en:Chapter 10
  56. 01:39:42.852                             : en:Chapter 11
  57. 01:45:11.847                             : en:Chapter 12
复制代码


精彩剧照

创造约翰·德罗宁 Framing.John.DeLorean.2019.1080p.BluRay.x264-BRMP 8.77GB-2.png


蓝光高清网提示您 点击下方附件名称 马上开始下载

Framing.John.DeLorean.2019.1080p.BluRay.x264-BRMP.torrent (44.78 KB, 下载次数: 0)
加入蓝光高清网VIP会员  无限制下载本站所有资源---点这里

资源下载、资源播放、字幕使用、无法下载等常见问题---点这里
回复

使用道具 举报

 

精彩评论215

正序浏览
mm1012@xxmm1012 发表于 2019-10-25 10:21:31 | 显示全部楼层
 
好网站 希望越来越好
回复

使用道具 举报

 
freefreely 发表于 2019-10-25 10:55:46 | 显示全部楼层
 
下载试一试
回复

使用道具 举报

 
ghsem99 发表于 2019-10-25 10:55:53 | 显示全部楼层
 
不错,支持下楼主
回复

使用道具 举报

 
aassdd2008 发表于 2019-10-25 10:55:54 | 显示全部楼层
 
蓝光高清网是个好地方
回复

使用道具 举报

 
hwhjs 发表于 2019-10-25 10:56:37 | 显示全部楼层
 
谢谢  下载了  3Q
回复

使用道具 举报

 
srtxiaodak90 发表于 2019-10-25 10:56:42 | 显示全部楼层
 
哈哈 谢谢 谢谢
回复

使用道具 举报

 
wwwpt163com 发表于 2019-10-25 11:03:10 | 显示全部楼层
 
还是蓝光看起带劲 音效爆棚
回复

使用道具 举报

 
emulator 发表于 2019-10-25 11:14:00 | 显示全部楼层
 
相当不错,感谢无私分享精神!
回复

使用道具 举报

 
53kd 发表于 2019-10-25 11:19:21 | 显示全部楼层
 
等好久这个资源了
回复

使用道具 举报

 
您需要登录后才可以回帖 登录 | 立即注册

本版积分规则

0关注

1粉丝

91146帖子

  • 版块推荐
  • 百宝箱

电影推荐

更多+

热门电影

更多+

关注我们:微信服务号

官方微信

手机版

蓝光高清网

专注4k电影、4k视频、VR视频、高清电影、蓝光原盘资源

本站内容部分由用户自主分享和转载自互联网,转载目的在于传递更多信息,并不代表本网赞同其观点和对其真实性负责。

如有侵权、违反国家法律政策行为,请联系我们,我们会第一时间及时清除和处理!

举报反馈邮箱:lanniao@1080pro.net

Copyright   ©2019-2020  蓝光高清网    |网站地图