开通会员
全站资源畅享下载
4k原盘抢先下载
免高清币下载
会员用户组特权
开通会员
上传
收藏
首页
开启左侧

[剧情] 谍海群英会 The.Quiller.Memorandum.1966.1080p.BluRay.x264-PSYCHD 9.84GB

[复制链接]
蓝鸟 发表于 2019-10-25 10:15:56 | 显示全部楼层 |阅读模式 打印 上一主题 下一主题
 

加入蓝光高清网,轻松下载最新4k资源

您需要 登录 才可以下载或查看,没有帐号?立即注册

x
谍海群英会 The.Quiller.Memorandum.1966.1080p.BluRay.x264-PSYCHD 9.84GB-1.png

译  名 谍海群英会 / Ian Foxwell"s The Quiller Memorandum / 狡辩备忘录
片  名 The Quiller Memorandum
年  代 1966
产  地 英国 / 美国
类  别 剧情 / 悬疑 / 惊悚
语  言 英语 / 德语
上映日期 1966-12-15
IMDb评分  6.4/10 from 3143 users
IMDb链接  https://www.imdb.com/title/tt0060880
豆瓣评分 6.3/10 from 151 users
豆瓣链接 https://movie.douban.com/subject/1839648/
片  长 104 分钟
导  演 迈克尔·安德森 Michael Anderson
编  剧 Trevor Dudley Smith / 哈罗德·品特 Harold Pinter
主  演 乔治·席格 George Segal
       亚历克·吉尼斯 Alec Guinness
       马克斯·冯·叙多夫 Max von Sydow
       森塔·贝格尔 Senta Berger
       乔治·拿德斯 George Sanders
       罗伯特·赫普曼 Robert Helpmann
       罗伯特·弗莱明 Robert Flemyng
       eter Carsten
       Ernst Walder
       Edith Schneider
       hilip Madoc
       Günter Meisner
       John Rees
       Bernard Barnsley
       Victor Beaumont
       Otto Friese
       赫伯特·福克斯 Herbert Fux
       aul Hansard
       约翰 梅尔德-布朗 John Moulder-Brown
       Hans Schwarz Jr.
       Herbert Stass
       Konrad Thoms


标  签 间谍 | 英国电影 | 英国 | 1960s | 悬疑 | AlecGuinness | 1966 | 冷战

简  介  

  《谍海群英会》是一部电影,影片以第二次世界大战为背景,讲述了一个孤胆英雄英国间谍奎勒只身和德国纳粹残余斗争的勇闯虎穴、智斗群魔式的故事,主人公具有007的个人英雄主义,情节惊险、悬疑、趣味十足,是间谍片里的经典之作。曾荣获英国电影妹院奖最佳影片、最佳编剧、最佳男主角、最佳摄影、最佳服装等多项提名。


该资源信息参数
  1. Video
  2. ID                                       : 1
  3. Format                                   : AVC
  4. Format/Info                              : Advanced Video Codec
  5. Format profile                           : High@L4
  6. Format settings                          : CABAC / 5 Ref Frames
  7. Format settings, CABAC                   : Yes
  8. Format settings, Reference frames        : 5 frames
  9. Codec ID                                 : V_MPEG4/ISO/AVC
  10. Duration                                 : 1 h 44 min
  11. Bit rate                                 : 12.7 Mb/s
  12. Width                                    : 1 920 pixels
  13. Height                                   : 824 pixels
  14. Display aspect ratio                     : 2.35:1
  15. Frame rate mode                          : Constant
  16. Frame rate                               : 24.000 FPS
  17. Color space                              : YUV
  18. Chroma subsampling                       : 4:2:0
  19. Bit depth                                : 8 bits
  20. Scan type                                : Progressive
  21. Bits/(Pixel*Frame)                       : 0.334
  22. Stream size                              : 9.08 GiB (92%)
  23. Writing library                          : x264 core 158 r2984 3759fcb
  24. Encoding settings                        : cabac=1 / ref=5 / deblock=1:-3:-3 / analyse=0x3:0x113 / me=umh / subme=8 / psy=1 / psy_rd=1.10:0.00 / mixed_ref=1 / me_range=32 / chroma_me=1 / trellis=2 / 8x8dct=1 / cqm=0 / deadzone=21,11 / fast_pskip=1 / chroma_qp_offset=-2 / threads=26 / lookahead_threads=4 / sliced_threads=0 / nr=0 / decimate=1 / interlaced=0 / bluray_compat=0 / constrained_intra=0 / bframes=3 / b_pyramid=2 / b_adapt=2 / b_bias=0 / direct=3 / weightb=1 / open_gop=0 / weightp=2 / keyint=240 / keyint_min=24 / scenecut=40 / intra_refresh=0 / rc_lookahead=50 / rc=2pass / mbtree=1 / bitrate=12673 / ratetol=1.0 / qcomp=0.60 / qpmin=0 / qpmax=69 / qpstep=4 / cplxblur=20.0 / qblur=0.5 / ip_ratio=1.40 / aq=3:0.70
  25. Default                                  : Yes
  26. Forced                                   : No
  27. Statistics Tags Issue                    : no_variable_data 1970-01-01 00:00:00 / no_variable_data 2010-02-22 21:41:29
  28. FromStats_BitRate                        : 12671752
  29. FromStats_Duration                       : 01:44:47.667000000
  30. FromStats_FrameCount                     : 150904
  31. FromStats_StreamSize                     : 9959469908

  32. Audio
  33. ID                                       : 2
  34. Format                                   : DTS
  35. Format/Info                              : Digital Theater Systems
  36. Codec ID                                 : A_DTS
  37. Duration                                 : 1 h 44 min
  38. Bit rate mode                            : Constant
  39. Bit rate                                 : 768 kb/s
  40. Channel(s)                               : 2 channels
  41. Channel layout                           : L R
  42. Sampling rate                            : 48.0 kHz
  43. Frame rate                               : 93.750 FPS (512 SPF)
  44. Bit depth                                : 24 bits
  45. Compression mode                         : Lossy
  46. Stream size                              : 576 MiB (6%)
  47. Language                                 : English
  48. Default                                  : Yes
  49. Forced                                   : No
  50. Statistics Tags Issue                    : no_variable_data 1970-01-01 00:00:00 / no_variable_data 2010-02-22 21:41:29
  51. FromStats_BitRate                        : 767999
  52. FromStats_Duration                       : 01:44:47.691000000
  53. FromStats_FrameCount                     : 589471
  54. FromStats_StreamSize                     : 603618304

  55. Text #1
  56. ID                                       : 3
  57. Format                                   : UTF-8
  58. Codec ID                                 : S_TEXT/UTF8
  59. Codec ID/Info                            : UTF-8 Plain Text
  60. Language                                 : English
  61. Default                                  : No
  62. Forced                                   : No
  63. Statistics Tags Issue                    : no_variable_data 1970-01-01 00:00:00 / no_variable_data 2010-02-22 21:41:29
  64. FromStats_BitRate                        : 41
  65. FromStats_Duration                       : 01:39:41.742000000
  66. FromStats_FrameCount                     : 868
  67. FromStats_StreamSize                     : 31059

  68. Text #2
  69. ID                                       : 4
  70. Format                                   : UTF-8
  71. Codec ID                                 : S_TEXT/UTF8
  72. Codec ID/Info                            : UTF-8 Plain Text
  73. Title                                    : SDH
  74. Language                                 : English
  75. Default                                  : No
  76. Forced                                   : No
  77. Statistics Tags Issue                    : no_variable_data 1970-01-01 00:00:00 / no_variable_data 2010-02-22 21:41:29
  78. FromStats_BitRate                        : 44
  79. FromStats_Duration                       : 01:41:22.075000000
  80. FromStats_FrameCount                     : 964
  81. FromStats_StreamSize                     : 33503

  82. Menu
  83. 00:00:00.000                             : en:Chapter 01
  84. 00:07:49.625                             : en:Chapter 02
  85. 00:15:39.042                             : en:Chapter 03
  86. 00:23:27.625                             : en:Chapter 04
  87. 00:31:20.042                             : en:Chapter 05
  88. 00:39:04.042                             : en:Chapter 06
  89. 00:46:56.625                             : en:Chapter 07
  90. 00:54:50.042                             : en:Chapter 08
  91. 01:02:38.500                             : en:Chapter 09
  92. 01:10:28.042                             : en:Chapter 10
  93. 01:18:19.500                             : en:Chapter 11
  94. 01:26:04.917                             : en:Chapter 12
  95. 01:34:03.042                             : en:Chapter 13
  96. 01:40:27.042                             : en:Chapter 14
复制代码


精彩剧照

谍海群英会 The.Quiller.Memorandum.1966.1080p.BluRay.x264-PSYCHD 9.84GB-2.png


蓝光高清网提示您 点击下方附件名称 马上开始下载

The.Quiller.Memorandum.1966.1080p.BluRay.x264-PSYCHD.attach (49.85 KB, 下载次数: 7)
加入蓝光高清网VIP会员  无限制下载本站所有资源---点这里

资源下载、资源播放、字幕使用、无法下载等常见问题---点这里
回复

使用道具 举报

 

精彩评论254

正序浏览
2xsky 发表于 2019-10-25 10:16:24 | 显示全部楼层
 
不错,支持下楼主
回复

使用道具 举报

 
yongheng7887 发表于 2019-10-25 10:21:37 | 显示全部楼层
 
终于找到了  谢谢分享
回复

使用道具 举报

 
hhxamw 发表于 2019-10-25 10:26:55 | 显示全部楼层
 
这个帖子不回对不起自己!我想我是一天也不能离开蓝光高清网了
回复

使用道具 举报

 
佳禾 发表于 2019-10-25 10:33:07 | 显示全部楼层
 
楼主发贴辛苦了,谢谢楼主分享!
回复

使用道具 举报

 
deadiori 发表于 2019-10-25 10:43:53 | 显示全部楼层
 
哈哈 谢谢 谢谢
回复

使用道具 举报

 
xgalpha 发表于 2019-10-25 10:49:04 | 显示全部楼层
 
楼主,大恩不言谢了!
回复

使用道具 举报

 
simankong 发表于 2019-10-25 10:49:14 | 显示全部楼层
 
好电影 谢谢楼主分享
回复

使用道具 举报

 
kobechan 发表于 2019-10-25 10:49:20 | 显示全部楼层
 
谢谢版主 希望坚持下去 好资源
回复

使用道具 举报

 
monster520 发表于 2019-10-25 11:02:35 | 显示全部楼层
 
哈哈 谢谢 谢谢
回复

使用道具 举报

 
您需要登录后才可以回帖 登录 | 立即注册

本版积分规则

0关注

1粉丝

91251帖子

  • 版块推荐
  • 百宝箱

电影推荐

更多+

热门电影

更多+

关注我们:微信服务号

官方微信

手机版

蓝光高清网

专注4k电影、4k视频、VR视频、高清电影、蓝光原盘资源

本站内容部分由用户自主分享和转载自互联网,转载目的在于传递更多信息,并不代表本网赞同其观点和对其真实性负责。

如有侵权、违反国家法律政策行为,请联系我们,我们会第一时间及时清除和处理!

举报反馈邮箱:lanniao@1080pro.net

Copyright   ©2019-2020  蓝光高清网    |网站地图