开通会员
全站资源畅享下载
4k原盘抢先下载
免高清币下载
会员用户组特权
开通会员
上传
收藏
首页
开启左侧

[科幻] 科妹怪人的怪兽 山达对盖拉 The.War.of.the.Gargantuas.1966.JAPANESE.1080p.BluRay.x264-HANDJOB 6.59GB

[复制链接]
蓝鸟 发表于 2019-10-25 10:16:52 | 显示全部楼层 |阅读模式 打印 上一主题 下一主题
 

加入蓝光高清网,轻松下载最新4k资源

您需要 登录 才可以下载或查看,没有帐号?立即注册

x
科妹怪人的怪兽 山达对盖拉 The.War.of.the.Gargantuas.1966.JAPANESE.1080p.BluRay.x264-HANDJOB 6.59GB-1.png

译  名 科妹怪人的怪兽 山达对盖拉 / The War of the Gargantuas
片  名 フランケンシュタインの怪獣 サンダ対ガイラ
年  代 1966
产  地 日本
类  别 科幻 / 恐怖
语  言 日语
上映日期 1966-07-31
IMDb评分  6.4/10 from 2042 users
IMDb链接  https://www.imdb.com/title/tt0060440
豆瓣评分 5.1/10 from 60 users
豆瓣链接 https://movie.douban.com/subject/2059273/
片  长 Germany: 77 分钟
导  演 本多猪四郎  Ishir? Honda
编  剧 本多猪四郎  Ishir? Honda / 木村武 Takeshi Kimura
主  演 高岛忠夫 Tadao Takashima
       尼克·亚当斯 Nick Adams
       水野久美 Kumi Mizuno
       Kipp Hamilton


标  签 科幻 | 日本 | 恐怖 | 特摄 | 本多猪四郎 | 日本电影 | 特摄片 | 1966

简  介  

  暂无相关剧情介绍


该资源信息参数
  1. Video
  2. ID                                       : 1
  3. Format                                   : AVC
  4. Format/Info                              : Advanced Video Codec
  5. Format profile                           : High@L4
  6. Format settings                          : CABAC / 5 Ref Frames
  7. Format settings, CABAC                   : Yes
  8. Format settings, Reference frames        : 5 frames
  9. Codec ID                                 : V_MPEG4/ISO/AVC
  10. Duration                                 : 1 h 27 min
  11. Bit rate                                 : 10.2 Mb/s
  12. Width                                    : 1 920 pixels
  13. Height                                   : 818 pixels
  14. Display aspect ratio                     : 2.35:1
  15. Frame rate mode                          : Constant
  16. Frame rate                               : 23.976 (24000/1001) FPS
  17. Color space                              : YUV
  18. Chroma subsampling                       : 4:2:0
  19. Bit depth                                : 8 bits
  20. Scan type                                : Progressive
  21. Bits/(Pixel*Frame)                       : 0.271
  22. Stream size                              : 6.27 GiB (95%)
  23. Writing library                          : x264 core 155 r2901 7d0ff22
  24. Encoding settings                        : cabac=1 / ref=5 / deblock=1:-3:-3 / analyse=0x3:0x133 / me=umh / subme=10 / psy=1 / psy_rd=1.00:0.00 / mixed_ref=1 / me_range=32 / chroma_me=1 / trellis=2 / 8x8dct=1 / cqm=0 / deadzone=21,11 / fast_pskip=0 / chroma_qp_offset=-2 / threads=18 / lookahead_threads=4 / sliced_threads=0 / nr=0 / decimate=0 / interlaced=0 / bluray_compat=0 / constrained_intra=0 / bframes=16 / b_pyramid=2 / b_adapt=2 / b_bias=0 / direct=3 / weightb=1 / open_gop=0 / weightp=1 / keyint=240 / keyint_min=24 / scenecut=40 / intra_refresh=0 / rc_lookahead=60 / rc=crf / mbtree=0 / crf=18.0 / qcomp=0.60 / qpmin=0 / qpmax=69 / qpstep=4 / vbv_maxrate=62500 / vbv_bufsize=78125 / crf_max=0.0 / nal_hrd=none / filler=0 / ip_ratio=1.40 / pb_ratio=1.30 / aq=2:1.00
  25. Default                                  : Yes
  26. Forced                                   : No
  27. Color range                              : Limited
  28. Color primaries                          : BT.709
  29. Transfer characteristics                 : BT.709
  30. Matrix coefficients                      : BT.709

  31. Audio #1
  32. ID                                       : 2
  33. Format                                   : AAC LC
  34. Format/Info                              : Advanced Audio Codec Low Complexity
  35. Codec ID                                 : A_AAC-2
  36. Duration                                 : 1 h 27 min
  37. Bit rate                                 : 320 kb/s
  38. Channel(s)                               : 2 channels
  39. Channel layout                           : L R
  40. Sampling rate                            : 48.0 kHz
  41. Frame rate                               : 46.875 FPS (1024 SPF)
  42. Compression mode                         : Lossy
  43. Delay relative to video                  : 9 ms
  44. Stream size                              : 201 MiB (3%)
  45. Language                                 : Japanese
  46. Default                                  : Yes
  47. Forced                                   : No

  48. Audio #2
  49. ID                                       : 3
  50. Format                                   : AC-3
  51. Format/Info                              : Audio Coding 3
  52. Commercial name                          : Dolby Digital
  53. Codec ID                                 : A_AC3
  54. Duration                                 : 1 h 27 min
  55. Bit rate mode                            : Constant
  56. Bit rate                                 : 192 kb/s
  57. Channel(s)                               : 2 channels
  58. Channel layout                           : L R
  59. Sampling rate                            : 48.0 kHz
  60. Frame rate                               : 31.250 FPS (1536 SPF)
  61. Bit depth                                : 16 bits
  62. Compression mode                         : Lossy
  63. Stream size                              : 121 MiB (2%)
  64. Language                                 : English
  65. Service kind                             : Complete Main
  66. Default                                  : No
  67. Forced                                   : No

  68. Text #1
  69. ID                                       : 4
  70. Format                                   : UTF-8
  71. Codec ID                                 : S_TEXT/UTF8
  72. Codec ID/Info                            : UTF-8 Plain Text
  73. Duration                                 : 1 h 27 min
  74. Bit rate                                 : 30 b/s
  75. Count of elements                        : 495
  76. Stream size                              : 19.3 KiB (0%)
  77. Language                                 : English
  78. Default                                  : Yes
  79. Forced                                   : No

  80. Text #2
  81. ID                                       : 5
  82. Format                                   : UTF-8
  83. Codec ID                                 : S_TEXT/UTF8
  84. Codec ID/Info                            : UTF-8 Plain Text
  85. Duration                                 : 1 h 24 min
  86. Bit rate                                 : 8 b/s
  87. Count of elements                        : 164
  88. Stream size                              : 5.32 KiB (0%)
  89. Title                                    : for english dub
  90. Language                                 : English
  91. Default                                  : No
  92. Forced                                   : No

  93. Menu
  94. 00:00:00.000                             : :Chapter 1
  95. 00:01:45.105                             : :Chapter 2
  96. 00:09:21.478                             : :Chapter 3
  97. 00:12:18.571                             : :Chapter 4
  98. 00:15:24.966                             : :Chapter 5
  99. 00:17:20.248                             : :Chapter 6
  100. 00:23:41.837                             : :Chapter 7
  101. 00:28:02.973                             : :Chapter 8
  102. 00:31:58.375                             : :Chapter 9
  103. 00:33:28.965                             : :Chapter 10
  104. 00:36:05.246                             : :Chapter 11
  105. 00:43:20.306                             : :Chapter 12
  106. 00:46:23.823                             : :Chapter 13
  107. 00:48:37.331                             : :Chapter 14
  108. 00:50:17.515                             : :Chapter 15
  109. 00:53:47.850                             : :Chapter 16
  110. 00:56:21.920                             : :Chapter 17
  111. 00:59:43.121                             : :Chapter 18
  112. 01:06:28.318                             : :Chapter 19
  113. 01:11:46.969                             : :Chapter 20
  114. 01:13:52.970                             : :Chapter 21
  115. 01:17:12.545                             : :Chapter 22
  116. 01:18:58.192                             : :Chapter 23
  117. 01:24:23.600                             : :Chapter 24
复制代码


精彩剧照

科妹怪人的怪兽 山达对盖拉 The.War.of.the.Gargantuas.1966.JAPANESE.1080p.BluRay.x264-HANDJOB 6.59GB-2.png 科妹怪人的怪兽 山达对盖拉 The.War.of.the.Gargantuas.1966.JAPANESE.1080p.BluRay.x264-HANDJOB 6.59GB-3.png 科妹怪人的怪兽 山达对盖拉 The.War.of.the.Gargantuas.1966.JAPANESE.1080p.BluRay.x264-HANDJOB 6.59GB-4.png


蓝光高清网提示您 点击下方附件名称 马上开始下载

The.War.of.the.Gargantuas.1966.JAPANESE.1080p.BluRay.x264-HANDJOB.torrent (33.49 KB, 下载次数: 0)
加入蓝光高清网VIP会员  无限制下载本站所有资源---点这里

资源下载、资源播放、字幕使用、无法下载等常见问题---点这里
回复

使用道具 举报

 

精彩评论226

正序浏览
mx365 发表于 2019-10-25 10:21:31 | 显示全部楼层
 
谢谢分享
回复

使用道具 举报

 
opteron185 发表于 2019-10-25 10:33:03 | 显示全部楼层
 
谢谢版主 希望坚持下去 好资源
回复

使用道具 举报

 
qiqiboy 发表于 2019-10-25 10:33:04 | 显示全部楼层
 
谢谢分享
回复

使用道具 举报

 
kakashi_13 发表于 2019-10-25 10:49:06 | 显示全部楼层
 
谢谢楼主分享
回复

使用道具 举报

 
zhantao2008 发表于 2019-10-25 10:56:31 | 显示全部楼层
 
好好 学习了 确实不错
回复

使用道具 举报

 
wang_hong_qiao2 发表于 2019-10-25 10:56:34 | 显示全部楼层
 
楼主,我太崇拜你了!
回复

使用道具 举报

 
micle 发表于 2019-10-25 10:56:35 | 显示全部楼层
 
sssssssssssssssssss
回复

使用道具 举报

 
-=BCF=-|MVP 发表于 2019-10-25 11:14:00 | 显示全部楼层
 
终于找到了  谢谢分享
回复

使用道具 举报

 
hongyao 发表于 2019-10-25 11:41:14 | 显示全部楼层
 
不错,支持下楼主
回复

使用道具 举报

 
您需要登录后才可以回帖 登录 | 立即注册

本版积分规则

0关注

1粉丝

91146帖子

  • 版块推荐
  • 百宝箱

电影推荐

更多+

热门电影

更多+

关注我们:微信服务号

官方微信

手机版

蓝光高清网

专注4k电影、4k视频、VR视频、高清电影、蓝光原盘资源

本站内容部分由用户自主分享和转载自互联网,转载目的在于传递更多信息,并不代表本网赞同其观点和对其真实性负责。

如有侵权、违反国家法律政策行为,请联系我们,我们会第一时间及时清除和处理!

举报反馈邮箱:lanniao@1080pro.net

Copyright   ©2019-2020  蓝光高清网    |网站地图