[惊悚] 死神来了5 Final.Destination.5.2011.1080p.BluRay.x264-PSYCHD 6.56GB

[复制链接]
蓝鸟VIP会员 永久VIP 发表于 2019-10-25 10:17:42 | 显示全部楼层 |阅读模式 打印 上一主题 下一主题

马上注册,轻松下载,海量资源,让你轻松玩转社区。

您需要 登录 才可以下载或查看,没有帐号?立即注册

x
死神来了5 Final.Destination.5.2011.1080p.BluRay.x264-PSYCHD 6.56GB-1.png

译  名 死神来了5 / 5inal Destination / 绝命终结街5
片  名 Final Destination 5
年  代 2011
产  地 美国
类  别 惊悚 / 恐怖
语  言 英语
上映日期 2011-08-12
IMDb评分  5.8/10 from 100027 users
IMDb链接  https://www.imdb.com/title/tt1622979
豆瓣评分 6.6/10 from 82418 users
豆瓣链接 https://movie.douban.com/subject/4724373/
片  长 92分钟
导  演 史蒂文·奎里  Steven Quale
编  剧 Eric Heisserer / Jeffrey Reddick
主  演 麦尔斯·费舍 Miles Fisher
       尼克·达歌斯托 Nicholas D"Agosto
       大卫·科恩查内 David Koechner
       艾玛·贝尔 Emma Bell
       梅甘·欧瑞 Meghan Ory
       杰奎琳·玛克林尼丝·伍德 Jacqueline MacInnes Wood
       托尼·托德 Tony Todd


标  签 惊悚 | 死神来了 | 恐怖 | 美国 | 血腥 | 死神来了5 | 悬疑 | 美国电影

简  介  

  某公司组织一次远游,虽然员工们各怀心事,不过他们还是踏上了欢乐的旅途。在经过一座巨大的吊桥时,年轻人山姆(Nicholas D"Agosto 饰)突然看到幻象,幻象中大桥开始垮塌,包括他、同事、朋友在内无数人在这起事故中遇难。当他从幻象中醒来时,周边的种种迹象表明那场灾难即将到来。慌乱之中,他和朱莉(艾玛·贝尔 Emma Bell 饰)、皮特(Miles Fisher 饰)、坎蒂丝(Ellen Wroe 饰)、奥利维亚(Jacqueline MacInnes Wood 饰)等8个人下了车。灾难随即发生,山姆等人成为车上仅有的幸存者。
  但是命运并未偏袒这几名幸运儿,死神仍时刻逡巡在他们的周围。死神来了,无论逃到天涯海角也没有用……


该资源信息参数
  1. Video
  2. ID                                       : 1
  3. Format                                   : AVC
  4. Format/Info                              : Advanced Video Codec
  5. Format profile                           : High@L4
  6. Format settings                          : CABAC / 5 Ref Frames
  7. Format settings, CABAC                   : Yes
  8. Format settings, ReFrames                : 5 frames
  9. Codec ID                                 : V_MPEG4/ISO/AVC
  10. Duration                                 : 1 h 31 min
  11. Bit rate                                 : 8 713 kb/s
  12. Width                                    : 1 920 pixels
  13. Height                                   : 800 pixels
  14. Display aspect ratio                     : 2.40:1
  15. Frame rate mode                          : Constant
  16. Frame rate                               : 23.976 (24000/1001) FPS
  17. Color space                              : YUV
  18. Chroma subsampling                       : 4:2:0
  19. Bit depth                                : 8 bits
  20. Scan type                                : Progressive
  21. Bits/(Pixel*Frame)                       : 0.237
  22. Stream size                              : 5.46 GiB (83%)
  23. Writing library                          : x264 core 120 r2120 0c7dab9
  24. Encoding settings                        : cabac=1 / ref=5 / deblock=1:0:0 / analyse=0x3:0x113 / me=umh / subme=8 / psy=1 / psy_rd=1.00:0.00 / mixed_ref=1 / me_range=16 / chroma_me=1 / trellis=1 / 8x8dct=1 / cqm=0 / deadzone=21,11 / fast_pskip=1 / chroma_qp_offset=-2 / threads=12 / sliced_threads=0 / nr=0 / decimate=1 / interlaced=0 / bluray_compat=0 / constrained_intra=0 / bframes=3 / b_pyramid=2 / b_adapt=2 / b_bias=0 / direct=3 / weightb=1 / open_gop=0 / weightp=2 / keyint=240 / keyint_min=24 / scenecut=40 / intra_refresh=0 / rc_lookahead=50 / rc=2pass / mbtree=1 / bitrate=8713 / ratetol=1.0 / qcomp=0.60 / qpmin=0 / qpmax=69 / qpstep=4 / cplxblur=20.0 / qblur=0.5 / ip_ratio=1.40 / aq=1:1.00
  25. Language                                 : English
  26. Default                                  : Yes
  27. Forced                                   : No

  28. Audio
  29. ID                                       : 2
  30. Format                                   : DTS
  31. Format/Info                              : Digital Theater Systems
  32. Codec ID                                 : A_DTS
  33. Duration                                 : 1 h 31 min
  34. Bit rate mode                            : Constant
  35. Bit rate                                 : 1 509 kb/s
  36. Channel(s)                               : 6 channels
  37. Channel layout                           : C L R Ls Rs LFE
  38. Sampling rate                            : 48.0 kHz
  39. Frame rate                               : 93.750 FPS (512 SPF)
  40. Bit depth                                : 24 bits
  41. Compression mode                         : Lossy
  42. Stream size                              : 991 MiB (15%)
  43. Language                                 : English
  44. Default                                  : Yes
  45. Forced                                   : No

  46. Text
  47. ID                                       : 3
  48. Format                                   : UTF-8
  49. Codec ID                                 : S_TEXT/UTF8
  50. Codec ID/Info                            : UTF-8 Plain Text
  51. Language                                 : English
  52. Default                                  : No
  53. Forced                                   : No

  54. Menu
  55. 00:00:00.000                             : en:00:00:00.000
  56. 00:09:51.341                             : en:00:09:51.341
  57. 00:20:22.763                             : en:00:20:22.763
  58. 00:30:36.543                             : en:00:30:36.543
  59. 00:40:56.996                             : en:00:40:56.996
  60. 00:51:19.076                             : en:00:51:19.076
  61. 01:00:55.777                             : en:01:00:55.777
  62. 01:09:02.847                             : en:01:09:02.847
  63. 01:22:35.576                             : en:01:22:35.576
  64. 01:26:23.303                             : en:01:26:23.303
复制代码


精彩剧照

死神来了5 Final.Destination.5.2011.1080p.BluRay.x264-PSYCHD 6.56GB-2.png


蓝光高清网提示您 点击下方附件名称 马上开始下载

Final.Destination.5.2011.1080p.BluRay.x264-PSYCHD.attach (131.75 KB, 下载次数: 2)

加入蓝光高清网VIP会员  无限制下载本站所有资源---点此加入

资源下载、资源播放、字幕使用、无法下载等常见问题---点这里

回复

使用道具 举报

精彩评论262

dragonba 发表于 2019-10-25 10:27:15 | 显示全部楼层
死神来了5 Final.Destination.5.2011.1080p.BluRay.x264-PSYCHD 6.56GB

加入蓝光高清网VIP会员  无限制下载本站所有资源---点此加入

资源下载、资源播放、字幕使用、无法下载等常见问题---点这里

回复

使用道具 举报

妖怪鱼 发表于 2019-10-25 10:43:42 | 显示全部楼层
希望蓝光高清网越来越好

加入蓝光高清网VIP会员  无限制下载本站所有资源---点此加入

资源下载、资源播放、字幕使用、无法下载等常见问题---点这里

回复

使用道具 举报

hjh1969 发表于 2019-10-25 10:43:47 | 显示全部楼层
谢谢分享

加入蓝光高清网VIP会员  无限制下载本站所有资源---点此加入

资源下载、资源播放、字幕使用、无法下载等常见问题---点这里

回复

使用道具 举报

jack_hua 发表于 2019-10-25 10:56:33 | 显示全部楼层
楼主幸苦了

加入蓝光高清网VIP会员  无限制下载本站所有资源---点此加入

资源下载、资源播放、字幕使用、无法下载等常见问题---点这里

回复

使用道具 举报

jaivy 发表于 2019-10-25 11:08:27 | 显示全部楼层
谢谢分享

加入蓝光高清网VIP会员  无限制下载本站所有资源---点此加入

资源下载、资源播放、字幕使用、无法下载等常见问题---点这里

回复

使用道具 举报

眼界 发表于 2019-10-25 11:19:40 | 显示全部楼层
谢谢版主 希望坚持下去 好资源

加入蓝光高清网VIP会员  无限制下载本站所有资源---点此加入

资源下载、资源播放、字幕使用、无法下载等常见问题---点这里

回复

使用道具 举报

williamscao 发表于 2019-10-25 11:24:53 | 显示全部楼层
下载试一试

加入蓝光高清网VIP会员  无限制下载本站所有资源---点此加入

资源下载、资源播放、字幕使用、无法下载等常见问题---点这里

回复

使用道具 举报

wyf198500 发表于 2019-10-25 11:24:53 | 显示全部楼层
还是蓝光看起带劲 音效爆棚

加入蓝光高清网VIP会员  无限制下载本站所有资源---点此加入

资源下载、资源播放、字幕使用、无法下载等常见问题---点这里

回复

使用道具 举报

彩虹123 发表于 2019-10-25 11:24:56 | 显示全部楼层
谢谢版主 希望坚持下去 好资源

加入蓝光高清网VIP会员  无限制下载本站所有资源---点此加入

资源下载、资源播放、字幕使用、无法下载等常见问题---点这里

回复

使用道具 举报

懒得打字嘛,点击右侧快捷回复
高级模式
B Color Image Link Quote Code Smilies 上传

本版积分规则

关注0

粉丝0

帖子69462

发布主题
最新电影 论坛
本期活动
联系我们
点击这里联系客服

服务时间:
周一到周日8:00-23:30

  • 打开微信扫一扫
    关注公众号

  • 手机QQ扫一扫
    添加客服

Archiver手机版蓝光高清网 ( 渝ICP备18006373号-2 )|网站地图

Powered by Discuz! X3.4  © 2001-2013 Comsenz Inc.