开通会员
全站资源畅享下载
4k原盘抢先下载
免高清币下载
会员用户组特权
开通会员
上传
收藏
首页
开启左侧

[惊悚] 死神来了2/死神又来了 Final.Destination.2.2003.1080p.BluRay.x264-ETHOS 6.56GB

[复制链接]
蓝鸟 发表于 2019-10-25 10:18:36 | 显示全部楼层 |阅读模式 打印 上一主题 下一主题
 

加入蓝光高清网,轻松下载最新4k资源

您需要 登录 才可以下载或查看,没有帐号?立即注册

x
死神来了2/死神又来了 Final.Destination.2.2003.1080p.BluRay.x264-ETHOS 6.56GB-1.png

译  名 死神来了2 / 死神又来了(港) / 绝命终结街2(台)
片  名 Final Destination 2
年  代 2003
产  地 美国 / 加拿大
类  别 惊悚 / 恐怖
语  言 英语
上映日期 2003-01-31(美国)
IMDb评分  6.2/10 from 142935 users
IMDb链接  https://www.imdb.com/title/tt0309593
豆瓣评分 7.3/10 from 117830 users
豆瓣链接 https://movie.douban.com/subject/1307956/
片  长 90 分钟
导  演 David R. Ellis
编  剧 Eric Bress / J. Mackye Gruber / Jeffrey Reddick
主  演 Ali Larter
       A.J. Cook
       Michael Landes
       David Paetkau
       Justina Machado
       Sarah Carter
       基冈·康纳·特雷西 Keegan Connor Tracy


标  签 惊悚 | 美国 | 恐怖 | 死神来了 | 悬疑 | 美国电影 | 血腥 | 2003

简  介  

  妇女金伯莉(A.J. Cook 饰)与好友驱车去郊围游玩,途中她预见一场严重的连环交通事故,而自己和朋友也将命丧其中。猛然惊醒的金伯莉将车横在路中央,阻挡了后面的车辆。然而车祸仍然发生,金伯莉侥幸逃过一劫,另有六人从灾难中逃生。这奇异的经历让众人想起180号航班幸存者的故事。
  正如他们预料的那样,死神不会放过任何一个逃跑者。这些幸存者按照他们本该在车祸中死去的顺序一个接一个在各种巧合和意围中死去,金伯莉成为最后的生者。她得知180航班幸存者克莉尔(Ali Larter 饰)仍然健在,她希望从克莉尔那里得到逃脱死神魔爪的办法……


该资源信息参数
  1. Video
  2. ID                                       : 1
  3. Format                                   : AVC
  4. Format/Info                              : Advanced Video Codec
  5. Format profile                           : High@L4
  6. Format settings, CABAC                   : Yes
  7. Format settings, ReFrames                : 4 frames
  8. Codec ID                                 : V_MPEG4/ISO/AVC
  9. Duration                                 : 1 h 30 min
  10. Bit rate                                 : 8 905 kb/s
  11. Width                                    : 1 920 pixels
  12. Height                                   : 1 080 pixels
  13. Display aspect ratio                     : 16:9
  14. Frame rate mode                          : Constant
  15. Frame rate                               : 23.976 FPS
  16. Color space                              : YUV
  17. Chroma subsampling                       : 4:2:0
  18. Bit depth                                : 8 bits
  19. Scan type                                : Progressive
  20. Bits/(Pixel*Frame)                       : 0.179
  21. Stream size                              : 5.48 GiB (84%)
  22. Writing library                          : x264 core 67 r1173M f6d3166
  23. Encoding settings                        : cabac=1 / ref=4 / deblock=1:0:0 / analyse=0x3:0x133 / me=umh / subme=7 / psy_rd=1.0:0.0 / mixed_ref=1 / me_range=16 / chroma_me=1 / trellis=1 / 8x8dct=1 / cqm=0 / deadzone=21,11 / chroma_qp_offset=-2 / threads=6 / nr=0 / decimate=1 / mbaff=0 / bframes=3 / b_pyramid=1 / b_adapt=1 / b_bias=0 / direct=1 / wpredb=1 / keyint=250 / keyint_min=25 / scenecut=40 / rc=2pass / bitrate=8905 / ratetol=1.0 / qcomp=0.60 / qpmin=10 / qpmax=51 / qpstep=4 / cplxblur=20.0 / qblur=0.5 / ip_ratio=1.40 / pb_ratio=1.30 / aq=1:1.00
  24. Language                                 : English
  25. Default                                  : Yes
  26. Forced                                   : No

  27. Audio
  28. ID                                       : 2
  29. Format                                   : DTS
  30. Format/Info                              : Digital Theater Systems
  31. Mode                                     : 16
  32. Format settings, Endianness              : Big
  33. Codec ID                                 : A_DTS
  34. Duration                                 : 1 h 30 min
  35. Bit rate mode                            : Constant
  36. Bit rate                                 : 1 509 kb/s
  37. Channel(s)                               : 6 channels
  38. Channel positions                        : Front: L C R, Side: L R, LFE
  39. Sampling rate                            : 48.0 kHz
  40. Frame rate                               : 93.750 FPS (512 spf)
  41. Bit depth                                : 24 bits
  42. Compression mode                         : Lossy
  43. Stream size                              : 973 MiB (14%)
  44. Title                                    : DTS
  45. Language                                 : English
  46. Default                                  : Yes
  47. Forced                                   : No
复制代码


精彩剧照

死神来了2/死神又来了 Final.Destination.2.2003.1080p.BluRay.x264-ETHOS 6.56GB-2.png 死神来了2/死神又来了 Final.Destination.2.2003.1080p.BluRay.x264-ETHOS 6.56GB-3.png 死神来了2/死神又来了 Final.Destination.2.2003.1080p.BluRay.x264-ETHOS 6.56GB-4.png 死神来了2/死神又来了 Final.Destination.2.2003.1080p.BluRay.x264-ETHOS 6.56GB-5.png 死神来了2/死神又来了 Final.Destination.2.2003.1080p.BluRay.x264-ETHOS 6.56GB-6.png 死神来了2/死神又来了 Final.Destination.2.2003.1080p.BluRay.x264-ETHOS 6.56GB-7.png


蓝光高清网提示您 点击下方附件名称 马上开始下载

Final.Destination.2.2003.1080p.BluRay.x264-ETHOS.torrent (66.12 KB, 下载次数: 9)
加入蓝光高清网VIP会员  无限制下载本站所有资源---点这里

资源下载、资源播放、字幕使用、无法下载等常见问题---点这里
回复

使用道具 举报

 

精彩评论222

正序浏览
vipcms 发表于 2019-10-25 10:33:05 | 显示全部楼层
 
谢谢楼主分享
回复

使用道具 举报

 
2103425 发表于 2019-10-25 10:38:39 | 显示全部楼层
 
下载来看看
回复

使用道具 举报

 
yyuange 发表于 2019-10-25 10:56:14 | 显示全部楼层
 
谢谢分享
回复

使用道具 举报

 
求生 发表于 2019-10-25 10:56:34 | 显示全部楼层
 
楼主,大恩不言谢了!
回复

使用道具 举报

 
zspapple 发表于 2019-10-25 11:08:38 | 显示全部楼层
 
楼主,我太崇拜你了!
回复

使用道具 举报

 
866998 发表于 2019-10-25 11:08:38 | 显示全部楼层
 
不错不错,楼主您辛苦了。。。
回复

使用道具 举报

 
adsl123456 发表于 2019-10-25 11:13:50 | 显示全部楼层
 
下载试一试
回复

使用道具 举报

 
zjolio 发表于 2019-10-25 11:19:31 | 显示全部楼层
 
路过,学习下
回复

使用道具 举报

 
waiting4u0428 发表于 2019-10-25 11:24:54 | 显示全部楼层
 
刷一波高清币,嘿嘿
回复

使用道具 举报

 
您需要登录后才可以回帖 登录 | 立即注册

本版积分规则

0关注

1粉丝

91146帖子

  • 版块推荐
  • 百宝箱

电影推荐

更多+

热门电影

更多+

关注我们:微信服务号

官方微信

手机版

蓝光高清网

专注4k电影、4k视频、VR视频、高清电影、蓝光原盘资源

本站内容部分由用户自主分享和转载自互联网,转载目的在于传递更多信息,并不代表本网赞同其观点和对其真实性负责。

如有侵权、违反国家法律政策行为,请联系我们,我们会第一时间及时清除和处理!

举报反馈邮箱:lanniao@1080pro.net

Copyright   ©2019-2020  蓝光高清网    |网站地图