[剧情] 美国精神病人/美国杀人狂 American.Psycho.2000.UNCUT.REMASTERED.1080p.BluRay.x264-iLLUSiON 7.73GB

[复制链接]
蓝鸟 发表于 2019-10-25 10:19:28 | 显示全部楼层 |阅读模式 打印 上一主题 下一主题
美国精神病人/美国杀人狂 American.Psycho.2000.UNCUT.REMASTERED.1080p.BluRay.x264-iLLUSiON 7.73GB-1.png

译  名 美国精神病人 / 美国杀人狂 / 美国狂人 / 美国狂魔 / 美国精神病 / 美色杀人狂
片  名 American Psycho
年  代 2000
产  地 美国
类  别 剧情 / 惊悚 / 犯罪
语  言 英语 / 西班牙语 / 粤语
上映日期 2000-01-21(圣丹斯电影节) / 2000-04-14(美国)
IMDb评分  7.6/10 from 442805 users
IMDb链接  https://www.imdb.com/title/tt0144084
豆瓣评分 7.7/10 from 50797 users
豆瓣链接 https://movie.douban.com/subject/1301715/
片  长 102 分钟
导  演 玛丽·哈伦 Mary Harron
编  剧 玛丽·哈伦 Mary Harron / Guinevere Turner
主  演 克里斯蒂安·贝尔 Christian Bale
       贾斯汀·塞洛克斯 Justin Theroux
       乔什·卢卡斯 Josh Lucas
       比尔·萨奇 Bill Sage
       科洛·塞维尼 Chlo? Sevigny
       瑞茜·威瑟斯彭 Reese Witherspoon
       萨曼莎·玛西丝 Samantha Mathis
       杰瑞德·莱托 Jared Leto
       威廉·达福 Willem Dafoe
       卡拉·西摩 Cara Seymour


标  签 犯罪 | 美国 | 心理 | 惊悚 | ChristianBale | 悬疑 | 美国电影 | 2000

简  介  

  本片改编自布莱特·伊斯顿·艾利斯极具争议的同名小说,是一部描述20世纪80年代末期美国都市生活的黑色社会讽刺片。
  帕特里克·贝特曼(克里斯蒂安·贝尔 Christian Bale 饰)是华尔街的骄子,炙手可热的股票经纪人,英俊迷人,谈吐风趣幽默,年轻有为的他每天给自己的 客户们赚进无数的美元。可当夜幕降临时,黑暗的无边恐怖唤醒了贝特曼双重性格中的另一面。他将一个个猎物绑架到他的豪华公寓,一点一点折磨,看着鲜血慢慢涌出,猎物痛苦地死去,一种莫名的快感袭击着他。他身份使得调查这一系列罪案的警官从未把他列为嫌疑对象,而另围一名同样嗜血的杀人狂却想作下一件更为血腥的案子,成为真正的杀手之王。贝特曼的双重性格让他终日忙碌。然而罪恶终是无法掩盖,一个冷血的连环杀人案凶手的结局会是怎样呢?贝特曼会被抓住吗?


该资源信息参数
  1. Video
  2. ID                                       : 1
  3. Format                                   : AVC
  4. Format/Info                              : Advanced Video Codec
  5. Format profile                           : High@L4
  6. Format settings, CABAC                   : Yes
  7. Format settings, ReFrames                : 5 frames
  8. Codec ID                                 : V_MPEG4/ISO/AVC
  9. Duration                                 : 1h 42mn
  10. Bit rate                                 : 9 226 Kbps
  11. Width                                    : 1 920 pixels
  12. Height                                   : 816 pixels
  13. Display aspect ratio                     : 2.35:1
  14. Frame rate mode                          : Constant
  15. Frame rate                               : 23.976 fps
  16. Color space                              : YUV
  17. Chroma subsampling                       : 4:2:0
  18. Bit depth                                : 8 bits
  19. Scan type                                : Progressive
  20. Bits/(Pixel*Frame)                       : 0.246
  21. Stream size                              : 6.42 GiB (84%)
  22. Writing library                          : x264 core 142 r2479 dd79a61
  23. Encoding settings                        : cabac=1 / ref=5 / deblock=1:0:0 / analyse=0x3:0x113 / me=umh / subme=8 / psy=1 / psy_rd=1.00:0.00 / mixed_ref=1 / me_range=16 / chroma_me=1 / trellis=1 / 8x8dct=1 / cqm=0 / deadzone=21,11 / fast_pskip=0 / chroma_qp_offset=-2 / threads=6 / lookahead_threads=1 / sliced_threads=0 / nr=0 / decimate=1 / interlaced=0 / bluray_compat=0 / constrained_intra=0 / bframes=3 / b_pyramid=2 / b_adapt=2 / b_bias=0 / direct=3 / weightb=1 / open_gop=0 / weightp=2 / keyint=250 / keyint_min=23 / scenecut=40 / intra_refresh=0 / rc_lookahead=50 / rc=2pass / mbtree=1 / bitrate=9226 / ratetol=1.0 / qcomp=0.60 / qpmin=0 / qpmax=69 / qpstep=4 / cplxblur=20.0 / qblur=0.5 / ip_ratio=1.40 / aq=1:1.00
  24. Default                                  : Yes
  25. Forced                                   : No

  26. Audio
  27. ID                                       : 2
  28. Format                                   : DTS
  29. Format/Info                              : Digital Theater Systems
  30. Mode                                     : 16
  31. Format settings, Endianness              : Big
  32. Codec ID                                 : A_DTS
  33. Duration                                 : 1h 42mn
  34. Bit rate mode                            : Constant
  35. Bit rate                                 : 1 509 Kbps
  36. Channel(s)                               : 6 channels
  37. Channel positions                        : Front: L C R, Side: L R, LFE
  38. Sampling rate                            : 48.0 KHz
  39. Bit depth                                : 24 bits
  40. Compression mode                         : Lossy
  41. Stream size                              : 1.08 GiB (14%)
  42. Language                                 : English
  43. Default                                  : Yes
  44. Forced                                   : No
复制代码


精彩剧照

美国精神病人/美国杀人狂 American.Psycho.2000.UNCUT.REMASTERED.1080p.BluRay.x264-iLLUSiON 7.73GB-2.png


蓝光高清网提示您 点击下方附件名称 马上开始下载

American.Psycho.2000.UNCUT.REMASTERED.1080p.BluRay.x264-iLLUSiON.torrent 
         (78.05 KB    阅读权限: 0)
加入蓝光高清网VIP会员  无限制下载本站所有资源---点这里

资源下载、资源播放、字幕使用、无法下载等常见问题---点这里
回复

使用道具 举报

精彩评论243

hx19860703 发表于 2019-10-25 10:21:33 | 显示全部楼层
美国精神病人/美国杀人狂 American.Psycho.2000.UNCUT.REMASTERED.1080p.BluRay.x264-iLLUSiON 7.73GB
回复

使用道具 举报

az2326983 发表于 2019-10-25 10:56:01 | 显示全部楼层
谢谢版主 希望坚持下去 好资源
回复

使用道具 举报

華中互聯 发表于 2019-10-25 10:56:21 | 显示全部楼层
终于找到了  谢谢分享
回复

使用道具 举报

softnews 发表于 2019-10-25 10:56:21 | 显示全部楼层
下载试一试
回复

使用道具 举报

Ryan88 发表于 2019-10-25 10:56:29 | 显示全部楼层
好网站 希望越来越好
回复

使用道具 举报

wingsch 发表于 2019-10-25 11:03:00 | 显示全部楼层
终于找到了  谢谢分享
回复

使用道具 举报

feifeihuashao 发表于 2019-10-25 11:08:40 | 显示全部楼层
蓝光高清网是个好地方
回复

使用道具 举报

antenna55 发表于 2019-10-25 11:14:10 | 显示全部楼层
好资源 收藏了 谢谢分享
回复

使用道具 举报

嘉嘉宇 发表于 2019-10-25 11:24:52 | 显示全部楼层
蓝光高清网是个好地方
回复

使用道具 举报

您需要登录后才可以回帖 登录 | 立即注册

本版积分规则

关注0

粉丝1

帖子83872

发布主题
最新电影 论坛
本期活动
联系我们
点击这里联系客服

服务时间:
周一到周日8:00-23:30

  • 打开微信扫一扫
    关注公众号

  • 手机QQ扫一扫
    添加客服

手机版蓝光高清网 |网站地图

Powered by Discuz! X3.4  © 2001-2013 Comsenz Inc.