开通会员
全站资源畅享下载
4k原盘抢先下载
免高清币下载
会员用户组特权
开通会员
上传
收藏
首页
开启左侧

[惊悚] 死神来了3/死神再3来了 Final.Destination.3.2006.1080p.BluRay.x264-ETHOS 6.56GB

[复制链接]
蓝鸟 发表于 2019-10-25 10:20:19 | 显示全部楼层 |阅读模式 打印 上一主题 下一主题
 

加入蓝光高清网,轻松下载最新4k资源

您需要 登录 才可以下载或查看,没有帐号?立即注册

x
死神来了3/死神再3来了 Final.Destination.3.2006.1080p.BluRay.x264-ETHOS 6.56GB-1.png

译  名 死神来了3 / 死神再3来了(港) / 绝命终结街3(台)
片  名 Final Destination 3
年  代 2006
产  地 美国 / 加拿大 / 德国
类  别 惊悚 / 恐怖
语  言 英语
上映日期 2006-02-10(美国)
IMDb评分  5.8/10 from 122962 users
IMDb链接  https://www.imdb.com/title/tt0414982
豆瓣评分 7.0/10 from 109320 users
豆瓣链接 https://movie.douban.com/subject/1436870/
片  长 93 分钟
导  演 黄毅瑜 James Wong
编  剧 Glen Morgan / 黄毅瑜 James Wong
主  演 Mary Elizabeth Winstead
       Ryan Merriman
       克里斯·勒姆彻 Kris Lemche
       Alexz Johnson
       Sam Easton
       Jesse Moss
       吉娜·赫尔顿 Gina Holden
       Texas Battle
       切兰·西蒙斯 Chelan Simmons
       克瑞斯塔尔 洛维 Crystal Lowe
       阿曼达·克鲁 Amanda Crew
       马美琪 Maggie Ma
       派崔克·盖勒 Patrick Gallagher


标  签 惊悚 | 美国 | 恐怖 | 死神来了 | 血腥 | 悬疑 | 美国电影 | 2006

简  介  

  高中生Wendy(Mary Elizabeth Winstead饰)与友人一起去游乐场庆祝毕业,大家玩得十分痛快。游乐场内灯火璀璨,却诡异处处。在坐上过山车的座椅时,Wendy忽然看到了怪异现象,心生恐怖,男友Jason安慰她不过是幻觉。过山车开动起来,可是在半空中突然出轨,大家倒挂空中。Wendy眼看着朋友一个一个坠落死亡,自己也不能幸免于难。
  被同妹的吆喝喊醒的Wendy惊觉刚才不过是幻觉,但是她忧心忡忡,力阻大家离开过山车。虽然遭到大家的嘲笑,但是事后证明这是正确的选择。过山车就如同Wendy看到的一样出事了。
  然而,逃过一劫的妇男妇女们并没有脱离死神的魔掌。他们接二连三地死去。Wendy发现这一切都与在游乐场的一张照片有关。为了生存,她开始了与死神的搏斗。


该资源信息参数
  1. Video
  2. ID                                       : 1
  3. Format                                   : AVC
  4. Format/Info                              : Advanced Video Codec
  5. Format profile                           : High@L4
  6. Format settings, CABAC                   : Yes
  7. Format settings, ReFrames                : 4 frames
  8. Codec ID                                 : V_MPEG4/ISO/AVC
  9. Duration                                 : 1 h 32 min
  10. Bit rate                                 : 8 606 kb/s
  11. Width                                    : 1 920 pixels
  12. Height                                   : 1 080 pixels
  13. Display aspect ratio                     : 16:9
  14. Frame rate mode                          : Constant
  15. Frame rate                               : 23.976 FPS
  16. Color space                              : YUV
  17. Chroma subsampling                       : 4:2:0
  18. Bit depth                                : 8 bits
  19. Scan type                                : Progressive
  20. Bits/(Pixel*Frame)                       : 0.173
  21. Stream size                              : 5.45 GiB (83%)
  22. Writing library                          : x264 core 67 r1173M f6d3166
  23. Encoding settings                        : cabac=1 / ref=4 / deblock=1:0:0 / analyse=0x3:0x133 / me=umh / subme=7 / psy_rd=1.0:0.0 / mixed_ref=1 / me_range=16 / chroma_me=1 / trellis=1 / 8x8dct=1 / cqm=0 / deadzone=21,11 / chroma_qp_offset=-2 / threads=6 / nr=0 / decimate=1 / mbaff=0 / bframes=3 / b_pyramid=1 / b_adapt=1 / b_bias=0 / direct=1 / wpredb=1 / keyint=250 / keyint_min=25 / scenecut=40 / rc=2pass / bitrate=8606 / ratetol=1.0 / qcomp=0.60 / qpmin=10 / qpmax=51 / qpstep=4 / cplxblur=20.0 / qblur=0.5 / ip_ratio=1.40 / pb_ratio=1.30 / aq=1:1.00
  24. Language                                 : English
  25. Default                                  : Yes
  26. Forced                                   : No

  27. Audio
  28. ID                                       : 2
  29. Format                                   : DTS
  30. Format/Info                              : Digital Theater Systems
  31. Mode                                     : 16
  32. Format settings, Endianness              : Big
  33. Codec ID                                 : A_DTS
  34. Duration                                 : 1 h 32 min
  35. Bit rate mode                            : Constant
  36. Bit rate                                 : 1 509 kb/s
  37. Channel(s)                               : 6 channels
  38. Channel positions                        : Front: L C R, Side: L R, LFE
  39. Sampling rate                            : 48.0 kHz
  40. Frame rate                               : 93.750 FPS (512 spf)
  41. Bit depth                                : 24 bits
  42. Compression mode                         : Lossy
  43. Stream size                              : 1 002 MiB (15%)
  44. Title                                    : DTS
  45. Language                                 : English
  46. Default                                  : Yes
  47. Forced                                   : No
复制代码


精彩剧照

死神来了3/死神再3来了 Final.Destination.3.2006.1080p.BluRay.x264-ETHOS 6.56GB-2.png 死神来了3/死神再3来了 Final.Destination.3.2006.1080p.BluRay.x264-ETHOS 6.56GB-3.png 死神来了3/死神再3来了 Final.Destination.3.2006.1080p.BluRay.x264-ETHOS 6.56GB-4.png 死神来了3/死神再3来了 Final.Destination.3.2006.1080p.BluRay.x264-ETHOS 6.56GB-5.png 死神来了3/死神再3来了 Final.Destination.3.2006.1080p.BluRay.x264-ETHOS 6.56GB-6.png 死神来了3/死神再3来了 Final.Destination.3.2006.1080p.BluRay.x264-ETHOS 6.56GB-7.png


蓝光高清网提示您 点击下方附件名称 马上开始下载

Final.Destination.3.2006.1080p.BluRay.x264-ETHOS.torrent (66.1 KB, 下载次数: 5)
加入蓝光高清网VIP会员  无限制下载本站所有资源---点这里

资源下载、资源播放、字幕使用、无法下载等常见问题---点这里
回复

使用道具 举报

 

精彩评论231

正序浏览
t60p 发表于 2019-10-25 10:26:41 | 显示全部楼层
 
真是 收益 匪浅
回复

使用道具 举报

 
776600 发表于 2019-10-25 10:43:56 | 显示全部楼层
 
还是蓝光看起带劲 音效爆棚
回复

使用道具 举报

 
yunwuyu 发表于 2019-10-25 10:49:08 | 显示全部楼层
 
路过,学习下
回复

使用道具 举报

 
chenqiteng 发表于 2019-10-25 10:56:32 | 显示全部楼层
 
谢谢楼主分享
回复

使用道具 举报

 
fansman 发表于 2019-10-25 10:56:42 | 显示全部楼层
 
谢谢版主 希望坚持下去 好资源
回复

使用道具 举报

 
BeingX 发表于 2019-10-25 11:08:30 | 显示全部楼层
 
哈哈 谢谢 谢谢
回复

使用道具 举报

 
lollhong 发表于 2019-10-25 11:24:54 | 显示全部楼层
 
不错,支持下楼主
回复

使用道具 举报

 
Kiyo冰 发表于 2019-10-25 11:24:55 | 显示全部楼层
 
不管怎么说就是支持,感谢版主的无私付出
回复

使用道具 举报

 
huang1352346 发表于 2019-10-25 11:30:17 | 显示全部楼层
 
楼主,我太崇拜你了!
回复

使用道具 举报

 
您需要登录后才可以回帖 登录 | 立即注册

本版积分规则

0关注

1粉丝

91146帖子

  • 版块推荐
  • 百宝箱

电影推荐

更多+

热门电影

更多+

关注我们:微信服务号

官方微信

手机版

蓝光高清网

专注4k电影、4k视频、VR视频、高清电影、蓝光原盘资源

本站内容部分由用户自主分享和转载自互联网,转载目的在于传递更多信息,并不代表本网赞同其观点和对其真实性负责。

如有侵权、违反国家法律政策行为,请联系我们,我们会第一时间及时清除和处理!

举报反馈邮箱:lanniao@1080pro.net

Copyright   ©2019-2020  蓝光高清网    |网站地图