[惊悚] 寂静之地/噤界 A.Quiet.Place.2018.1080p.BluRay.x264-SPARKS 6.56GB

[复制链接]
蓝鸟VIP会员 永久VIP 发表于 2019-10-25 10:22:00 | 显示全部楼层 |阅读模式 打印 上一主题 下一主题

马上注册,轻松下载,海量资源,让你轻松玩转社区。

您需要 登录 才可以下载或查看,没有帐号?立即注册

x
寂静之地/噤界 A.Quiet.Place.2018.1080p.BluRay.x264-SPARKS 6.56GB-1.png

译  名 寂静之地 / 噤界(台) / 无声绝境(港) / 静地
片  名 A Quiet Place
年  代 2018
产  地 美国
类  别 惊悚 / 恐怖
语  言 美国手语 / 英语
上映日期 2018-03-09(西南偏南电影节) / 2018-04-06(美国) / 2018-05-18(中国大陆)
IMDb评分  7.5/10 from 321527 users
IMDb链接  http://www.imdb.com/title/tt6644200
豆瓣评分 6.3/10 from 205927 users
豆瓣链接 https://movie.douban.com/subject/26997663/
片  长 90分钟
导  演 约翰·卡拉辛斯基 John Krasinski
编  剧 布莱恩·伍兹 Bryan Woods / 斯科特·贝克 Scott Beck / 约翰·卡拉辛斯基 John Krasinski
主  演 艾米莉·布朗特 Emily Blunt
       约翰·卡拉辛斯基 John Krasinski
       米丽拿特·西蒙德 Millicent Simmonds
       诺亚·尤佩 Noah Jupe
       凯德·伍德沃德 Cade Woodward
       里昂·拉瑟姆 Leon Russom
       桃乐丝·麦卡锡 Doris McCarthy


标  签 惊悚 | 恐怖 | 美国 | 科幻 | 2018 | 超自然 | 剧情 | 人性

简  介  

  一个大规模的入侵行动发生,让地球几乎全灭,幸存的这一家人过着安静无声的生活,一发出声音就会被怪物抓走。《寂静之地》中的家庭必须时时保持安静,这一家人必须搞清楚哪些声音可以发出,哪些不行。父亲铺了沙子路来消音,全家人必须使用手语,还有用来沟通的照明系统…等,才能避免可怕的事情发生,因为猎杀他们的怪物无所不在,这是真正的挑战,他们必须克服生死难关,想尽办法活下去。
  保持安静是生存唯一法则,它们无法听到你,就无法追捕你。

获奖情况  

  第91届奥斯卡金像奖(2019)
  最佳音效剪辑(提名) 埃里克·阿达尔 / 伊拿·范德莱恩

  第76届金球奖(2019)
  电影类 最佳原创配乐(提名)

  第72届英国电影妹院奖(2019)
  电影奖 最佳音效(提名)

  第27届MTV电影奖(2018)
  MTV电影奖 最佳惊恐戏表演(提名) 艾米莉·布朗特

  第25届美国演员工会奖(2019)
  电影奖 最佳女配角 艾米莉·布朗特

  第71届美国编剧工会奖(2019)
  电影奖 最佳原创剧本(提名) 约翰·卡拉辛斯基 / 布莱恩·伍兹 / 斯科特·贝克

  第30届美国制片人工会奖(2019)
  最佳电影制片人奖(提名)

  第23届美国艺术指导工会奖(2019)
  电影奖 最佳当代电影艺术指导(提名) 杰弗里·比克罗夫特

  第66届美国音效剪辑协会奖(2019)
  金卷轴奖 最佳电影音效剪辑
  金卷轴奖 最佳电影对白剪辑(提名)
  金卷轴奖 最佳配乐剪辑(提名)

  第55届美国声音效果协会奖(2019)
  真人电影最佳音效(提名)

  第90届美国国家评论协会奖(2018)
  年度佳片

  第24届美国评论家选择电影奖(2019)
  最佳青妇年演员(提名) 米利森特·西蒙兹
  最佳科幻/恐怖片
  最佳原创剧本(提名) 约翰·卡拉辛斯基 / 布莱恩·伍兹 / 斯科特·贝克

  第19届美国电影妹会奖(2018)
  年度佳片

  第23届金卫星奖(2019)
  电影部门 最佳原创剧本(提名) 约翰·卡拉辛斯基 / 斯科特·贝克 / 布莱恩·伍兹
  电影部门 最佳音效

  第22届好莱坞电影奖(2018)
  年度音效 布兰登·普罗克特 / 埃里克·阿达尔 / 伊拿·范德莱恩

  第17届华盛顿影评人协会奖(2018)
  最佳青妇年表演(提名) 米利森特·西蒙兹

  第39届伦敦影评人协会奖(2019)
  年度英国/爱尔兰女演员(提名) 艾米莉·布朗特
  年度英国/爱尔兰小演员(提名) 诺亚·尤佩
  技术成就奖(提名) 埃里克·阿达尔 / 伊拿·范德莱恩

  第52届堪萨斯影评人协会奖(2018)
  最佳科幻/恐怖片

  第18届凤凰城影评人协会奖(2018)
  十佳影片

  第3届亚特兰大影评人协会奖(2018)
  十佳影片

  第22届美国在线影评人协会奖(2019)
  最佳音效设计

  第5届豆瓣电影年度榜单(2018)
  评分最高的恐怖/惊悚片(提名)


该资源信息参数
  1. Video
  2. ID                                       : 2
  3. Format                                   : AVC
  4. Format/Info                              : Advanced Video Codec
  5. Format profile                           : High@L4
  6. Format settings                          : CABAC / 5 Ref Frames
  7. Format settings, CABAC                   : Yes
  8. Format settings, RefFrames               : 5 frames
  9. Codec ID                                 : V_MPEG4/ISO/AVC
  10. Duration                                 : 1 h 30 min
  11. Bit rate                                 : 9 762 kb/s
  12. Width                                    : 1 920 pixels
  13. Height                                   : 800 pixels
  14. Display aspect ratio                     : 2.40:1
  15. Frame rate mode                          : Constant
  16. Frame rate                               : 23.976 (24000/1001) FPS
  17. Color space                              : YUV
  18. Chroma subsampling                       : 4:2:0
  19. Bit depth                                : 8 bits
  20. Scan type                                : Progressive
  21. Bits/(Pixel*Frame)                       : 0.265
  22. Stream size                              : 6.15 GiB (94%)
  23. Writing library                          : x264 core 155 r2901 7d0ff22
  24. Encoding settings                        : cabac=1 / ref=5 / deblock=1:-3:-3 / analyse=0x3:0x133 / me=umh / subme=8 / psy=1 / psy_rd=1.00:0.00 / mixed_ref=1 / me_range=16 / chroma_me=1 / trellis=1 / 8x8dct=1 / cqm=0 / deadzone=21,11 / fast_pskip=0 / chroma_qp_offset=-2 / threads=25 / lookahead_threads=4 / sliced_threads=0 / nr=0 / decimate=1 / interlaced=0 / bluray_compat=0 / constrained_intra=0 / bframes=3 / b_pyramid=2 / b_adapt=1 / b_bias=0 / direct=3 / weightb=1 / open_gop=0 / weightp=2 / keyint=250 / keyint_min=23 / scenecut=40 / intra_refresh=0 / rc_lookahead=50 / rc=2pass / mbtree=1 / bitrate=9762 / ratetol=1.0 / qcomp=0.60 / qpmin=0 / qpmax=69 / qpstep=4 / cplxblur=20.0 / qblur=0.5 / vbv_maxrate=62500 / vbv_bufsize=78125 / nal_hrd=none / filler=0 / ip_ratio=1.40 / aq=1:1.00
  25. Default                                  : Yes
  26. Forced                                   : No

  27. Audio
  28. ID                                       : 3
  29. Format                                   : AC-3
  30. Format/Info                              : Audio Coding 3
  31. Format settings, Endianness              : Big
  32. Codec ID                                 : A_AC3
  33. Duration                                 : 1 h 30 min
  34. Bit rate mode                            : Constant
  35. Bit rate                                 : 640 kb/s
  36. Channel(s)                               : 6 channels
  37. Channel positions                        : Front: L C R, Side: L R, LFE
  38. Sampling rate                            : 48.0 kHz
  39. Frame rate                               : 31.250 FPS (1536 SPF)
  40. Bit depth                                : 16 bits
  41. Compression mode                         : Lossy
  42. Stream size                              : 413 MiB (6%)
  43. Language                                 : English
  44. Service kind                             : Complete Main
  45. Default                                  : Yes
  46. Forced                                   : No

  47. Text
  48. ID                                       : 1
  49. Format                                   : UTF-8
  50. Codec ID                                 : S_TEXT/UTF8
  51. Codec ID/Info                            : UTF-8 Plain Text
  52. Duration                                 : 1 h 11 min
  53. Bit rate                                 : 3 b/s
  54. Count of elements                        : 114
  55. Stream size                              : 1.87 KiB (0%)
  56. Title                                    : English Forced
  57. Language                                 : English
  58. Default                                  : Yes
  59. Forced                                   : Yes

  60. Menu
  61. 00:00:00.000                             : en:00:00:00.000
  62. 00:10:19.160                             : en:00:10:19.160
  63. 00:14:38.044                             : en:00:14:38.044
  64. 00:21:52.937                             : en:00:21:52.937
  65. 00:25:09.717                             : en:00:25:09.717
  66. 00:31:05.197                             : en:00:31:05.197
  67. 00:36:23.431                             : en:00:36:23.431
  68. 00:43:47.333                             : en:00:43:47.333
  69. 00:47:42.735                             : en:00:47:42.735
  70. 00:53:48.225                             : en:00:53:48.225
  71. 01:00:31.461                             : en:01:00:31.461
  72. 01:05:55.410                             : en:01:05:55.410
  73. 01:10:57.879                             : en:01:10:57.879
  74. 01:15:29.150                             : en:01:15:29.150
  75. 01:23:47.314                             : en:01:23:47.314
复制代码


精彩剧照

寂静之地/噤界 A.Quiet.Place.2018.1080p.BluRay.x264-SPARKS 6.56GB-2.png


蓝光高清网提示您 点击下方附件名称 马上开始下载

A.Quiet.Place.2018.1080p.BluRay.x264-SPARKS.torrent (132 KB, 下载次数: 2)

加入蓝光高清网VIP会员  无限制下载本站所有资源---点此加入

资源下载、资源播放、字幕使用、无法下载等常见问题---点这里

回复

使用道具 举报

精彩评论290

好力克 发表于 2019-10-25 10:27:09 | 显示全部楼层
这个帖子不回对不起自己!我想我是一天也不能离开蓝光高清网了

加入蓝光高清网VIP会员  无限制下载本站所有资源---点此加入

资源下载、资源播放、字幕使用、无法下载等常见问题---点这里

回复

使用道具 举报

kele0123 发表于 2019-10-25 10:32:49 | 显示全部楼层
好电影 收藏了

加入蓝光高清网VIP会员  无限制下载本站所有资源---点此加入

资源下载、资源播放、字幕使用、无法下载等常见问题---点这里

回复

使用道具 举报

cnco 发表于 2019-10-25 10:56:20 | 显示全部楼层
支持一下

加入蓝光高清网VIP会员  无限制下载本站所有资源---点此加入

资源下载、资源播放、字幕使用、无法下载等常见问题---点这里

回复

使用道具 举报

calvinse 发表于 2019-10-25 10:56:34 | 显示全部楼层
还是蓝光看起带劲 音效爆棚

加入蓝光高清网VIP会员  无限制下载本站所有资源---点此加入

资源下载、资源播放、字幕使用、无法下载等常见问题---点这里

回复

使用道具 举报

April800 发表于 2019-10-25 11:13:59 | 显示全部楼层
楼主幸苦了

加入蓝光高清网VIP会员  无限制下载本站所有资源---点此加入

资源下载、资源播放、字幕使用、无法下载等常见问题---点这里

回复

使用道具 举报

冰and冰 发表于 2019-10-25 11:24:42 | 显示全部楼层
真是 收益 匪浅

加入蓝光高清网VIP会员  无限制下载本站所有资源---点此加入

资源下载、资源播放、字幕使用、无法下载等常见问题---点这里

回复

使用道具 举报

dienhu 发表于 2019-10-25 11:24:53 | 显示全部楼层
等好久这个资源了

加入蓝光高清网VIP会员  无限制下载本站所有资源---点此加入

资源下载、资源播放、字幕使用、无法下载等常见问题---点这里

回复

使用道具 举报

何必讲粗口 发表于 2019-10-25 11:24:55 | 显示全部楼层
好好 学习了 确实不错

加入蓝光高清网VIP会员  无限制下载本站所有资源---点此加入

资源下载、资源播放、字幕使用、无法下载等常见问题---点这里

回复

使用道具 举报

liu999ju 发表于 2019-10-25 11:24:56 | 显示全部楼层
楼主,我太崇拜你了!

加入蓝光高清网VIP会员  无限制下载本站所有资源---点此加入

资源下载、资源播放、字幕使用、无法下载等常见问题---点这里

回复

使用道具 举报

懒得打字嘛,点击右侧快捷回复
高级模式
B Color Image Link Quote Code Smilies 上传

本版积分规则

关注0

粉丝0

帖子69462

发布主题
最新电影 论坛
本期活动
联系我们
点击这里联系客服

服务时间:
周一到周日8:00-23:30

  • 打开微信扫一扫
    关注公众号

  • 手机QQ扫一扫
    添加客服

Archiver手机版蓝光高清网 ( 渝ICP备18006373号-2 )|网站地图

Powered by Discuz! X3.4  © 2001-2013 Comsenz Inc.