[剧情片] 豪情四海/一代情枭毕斯 Bugsy.1991.1080p.AMZN.WEBRip.DDP5.1.x264-NTb 10.98GB

[复制链接]
蓝鸟 发表于 2019-10-27 11:07:52 | 显示全部楼层 |阅读模式 打印 上一主题 下一主题
豪情四海/一代情枭毕斯 Bugsy.1991.1080p.AMZN.WEBRip.DDP5.1.x264-NTb 10.98GB-1.png

译  名 豪情四海 / 一代情枭毕斯 / 巴格西
片  名 Bugsy
年  代 1991
产  地 美国
类  别 剧情 / 传记 / 犯罪
语  言 英语
上映日期 1991-12-20
IMDb评分  6.8/10 from 24226 users
IMDb链接  https://www.imdb.com/title/tt0101516
豆瓣评分 7.8/10 from 1607 users
豆瓣链接 https://movie.douban.com/subject/1292452/
片  长 136 分钟
导  演 巴瑞·莱文森 Barry Levinson
编  剧 Dean Jennings / 詹姆斯·托贝克 James Toback
主  演 沃伦·比蒂 Warren Beatty
       安妮特·贝宁 Annette Bening
       哈威·凯特尔 Harvey Keitel
       本·金斯利 Ben Kingsley


标  签 美国 | 黑帮 | 传记 | 美国电影 | 爱情 | 1991 | 犯罪 | AnnetteBening

简  介  

  取材自真人真事的黑帮英雄片。沃伦.贝蒂饰演美国梦的追逐者巴格西席格,他原是叱吒东岸的黑道杀手,在前往西岸洛杉矶开疆拓土之余,他看上了性感的女明星维琴妮亚.希尔,展开一段火药味浓厚的恋情。另一方面,他看上了拉斯维加斯一处牧牛的荒地,决定投入巨资把它建成美酒笙歌的豪华赌场。

获奖情况  

  第64届奥斯卡金像奖(1992)
  最佳影片(提名) 沃伦·比蒂 / 巴瑞·莱文森 / 马克·约翰逊
  最佳导演(提名) 巴瑞·莱文森
  最佳男主角(提名) 沃伦·比蒂
  最佳男配角(提名) 哈威·凯特尔 / 本·金斯利
  最佳原创剧本(提名) 詹姆斯·托贝克
  最佳摄影(提名) 艾伦·达维奥
  最佳艺术指导 南茜·黑格 / 丹尼斯·加斯纳
  最佳服装设计 艾伯特·沃斯基
  最佳原创配乐(提名) 恩尼奥·莫里康内

  第42届柏林国际电影节(1992)
  金熊奖 最佳影片(提名) 巴瑞·莱文森


该资源信息参数
  1. Video
  2. ID                                       : 1
  3. Format                                   : AVC
  4. Format/Info                              : Advanced Video Codec
  5. Format profile                           : High@L4
  6. Format settings                          : CABAC / 4 Ref Frames
  7. Format settings, CABAC                   : Yes
  8. Format settings, Reference frames        : 4 frames
  9. Codec ID                                 : V_MPEG4/ISO/AVC
  10. Duration                                 : 2 h 16 min
  11. Bit rate mode                            : Variable
  12. Bit rate                                 : 10.7 Mb/s
  13. Maximum bit rate                         : 15.0 Mb/s
  14. Width                                    : 1 920 pixels
  15. Height                                   : 1 080 pixels
  16. Display aspect ratio                     : 16:9
  17. Frame rate mode                          : Constant
  18. Frame rate                               : 23.976 (24000/1001) FPS
  19. Color space                              : YUV
  20. Chroma subsampling                       : 4:2:0
  21. Bit depth                                : 8 bits
  22. Scan type                                : Progressive
  23. Bits/(Pixel*Frame)                       : 0.215
  24. Stream size                              : 10.2 GiB (92%)
  25. Writing library                          : x264 core 148 r2623 d5b2374
  26. Encoding settings                        : cabac=1 / ref=4 / deblock=1:-1:-1 / analyse=0x3:0x133 / me=umh / subme=9 / psy=1 / psy_rd=1.00:0.15 / mixed_ref=1 / me_range=24 / chroma_me=1 / trellis=2 / 8x8dct=1 / cqm=0 / deadzone=21,11 / fast_pskip=1 / chroma_qp_offset=-3 / threads=34 / lookahead_threads=5 / sliced_threads=0 / nr=150 / decimate=1 / interlaced=0 / bluray_compat=0 / constrained_intra=0 / bframes=8 / b_pyramid=2 / b_adapt=2 / b_bias=0 / direct=3 / weightb=1 / open_gop=0 / weightp=2 / keyint=120 / keyint_min=61 / scenecut=0 / intra_refresh=0 / rc_lookahead=120 / rc=crf / mbtree=1 / crf=18.0 / qcomp=0.60 / qpmin=0 / qpmax=69 / qpstep=4 / vbv_maxrate=15000 / vbv_bufsize=31250 / crf_max=0.0 / nal_hrd=vbr / filler=0 / ip_ratio=1.40 / aq=3:1.00
  27. Default                                  : Yes
  28. Forced                                   : No
  29. Color range                              : Limited
  30. Color primaries                          : BT.709
  31. Transfer characteristics                 : BT.709
  32. Matrix coefficients                      : BT.709

  33. Audio
  34. ID                                       : 2
  35. Format                                   : E-AC-3
  36. Format/Info                              : Enhanced AC-3
  37. Commercial name                          : Dolby Digital Plus
  38. Codec ID                                 : A_EAC3
  39. Duration                                 : 2 h 16 min
  40. Bit rate mode                            : Constant
  41. Bit rate                                 : 640 kb/s
  42. Channel(s)                               : 6 channels
  43. Channel layout                           : L R C LFE Ls Rs
  44. Sampling rate                            : 48.0 kHz
  45. Frame rate                               : 31.250 FPS (1536 SPF)
  46. Compression mode                         : Lossy
  47. Stream size                              : 624 MiB (6%)
  48. Language                                 : English
  49. Service kind                             : Complete Main
  50. Default                                  : Yes
  51. Forced                                   : No

  52. Text
  53. ID                                       : 3
  54. Format                                   : UTF-8
  55. Codec ID                                 : S_TEXT/UTF8
  56. Codec ID/Info                            : UTF-8 Plain Text
  57. Language                                 : English
  58. Default                                  : No
  59. Forced                                   : No
复制代码


精彩剧照

豪情四海/一代情枭毕斯 Bugsy.1991.1080p.AMZN.WEBRip.DDP5.1.x264-NTb 10.98GB-2.png 豪情四海/一代情枭毕斯 Bugsy.1991.1080p.AMZN.WEBRip.DDP5.1.x264-NTb 10.98GB-3.png 豪情四海/一代情枭毕斯 Bugsy.1991.1080p.AMZN.WEBRip.DDP5.1.x264-NTb 10.98GB-4.png 豪情四海/一代情枭毕斯 Bugsy.1991.1080p.AMZN.WEBRip.DDP5.1.x264-NTb 10.98GB-5.png 豪情四海/一代情枭毕斯 Bugsy.1991.1080p.AMZN.WEBRip.DDP5.1.x264-NTb 10.98GB-6.png 豪情四海/一代情枭毕斯 Bugsy.1991.1080p.AMZN.WEBRip.DDP5.1.x264-NTb 10.98GB-7.png


蓝光高清网提示您 点击下方附件名称 马上开始下载

Bugsy.1991.1080p.AMZN.WEBRip.DDP5.1.x264-NTb.torrent 
         (55.49 KB    阅读权限: 0)
加入蓝光高清网VIP会员  无限制下载本站所有资源---点这里

资源下载、资源播放、字幕使用、无法下载等常见问题---点这里
回复

使用道具 举报

精彩评论8

wangg337 发表于 2019-10-27 11:11:18 | 显示全部楼层
sssssssssssssssssss
回复

使用道具 举报

紫气东来东气紫 发表于 2019-10-27 11:21:56 | 显示全部楼层
真是 收益 匪浅
回复

使用道具 举报

ruanxihai 发表于 2019-10-27 11:22:02 | 显示全部楼层
真是 收益 匪浅
回复

使用道具 举报

hrm6619 发表于 2019-10-27 11:48:18 | 显示全部楼层
希望蓝光高清网越来越好
回复

使用道具 举报

zhj_un 发表于 2019-10-27 11:48:21 | 显示全部楼层
感谢楼主的无私分享!
回复

使用道具 举报

zhangxin80 发表于 2019-10-27 11:48:40 | 显示全部楼层
路过,学习下
回复

使用道具 举报

Xelloss0618 发表于 2019-10-27 11:58:49 | 显示全部楼层
谢谢楼主分享
回复

使用道具 举报

watt55 发表于 2019-10-27 11:58:51 | 显示全部楼层
路过,学习下
回复

使用道具 举报

您需要登录后才可以回帖 登录 | 立即注册

本版积分规则

关注0

粉丝1

帖子89669

发布主题
最新电影 论坛
本期活动
联系我们
点击这里联系客服

服务时间:
周一到周日8:00-23:30

  • 打开微信扫一扫
    关注公众号

  • 手机QQ扫一扫
    添加客服

手机版蓝光高清网 |网站地图

Powered by Discuz! X3.4 Licensed  © 2001-2013 Comsenz Inc.