[喜剧片] 最佳玩家 Best.Player.2011.1080p.AMZN.WEBRip.DDP2.0.x264-TrollHD 8.10GB

[复制链接]
蓝鸟 发表于 2019-10-27 11:09:29 | 显示全部楼层 |阅读模式 打印 上一主题 下一主题
最佳玩家 Best.Player.2011.1080p.AMZN.WEBRip.DDP2.0.x264-TrollHD 8.10GB-1.png

译  名 最佳玩家
片  名 Best Player
年  代 2011
产  地 美国
语  言 英语
上映日期 2010
IMDb评分  5.9/10 from 1753 users
IMDb链接  https://www.imdb.com/title/tt1535615
豆瓣评分 0/10 from 0 users
豆瓣链接 https://movie.douban.com/subject/5161841/
片  长 88分钟
导  演 Damon Santostefano
编  剧 Richard Amberg
主  演 Jerry Trainor
       詹妮特·麦柯迪 Jennette McCurdy


标  签 美国 | 喜剧 | 金凯瑞 | 类似 | 男主角 | 游戏 | Jim | Carrey

简  介  

  Quincy已年过三十还住在父母的房子地下室,他白天送围卖,晚上把业余时间全都投入一款叫“黑洞”的网游,他在游戏里的名字叫Q。有一天Quincy的父母宣布要卖掉房子,走投无路的Quincy报名参加一场游戏大赛,希望赚到奖金买下父母的房子。不曾想一个名叫"Prodigy"的神秘玩家给他的计划带来了严重的危胁……


该资源信息参数
  1. Video
  2. ID                                       : 2
  3. Format                                   : AVC
  4. Format/Info                              : Advanced Video Codec
  5. Format profile                           : High@L4
  6. Format settings                          : CABAC / 4 Ref Frames
  7. Format settings, CABAC                   : Yes
  8. Format settings, Reference frames        : 4 frames
  9. Codec ID                                 : V_MPEG4/ISO/AVC
  10. Duration                                 : 1 h 24 min
  11. Bit rate mode                            : Variable
  12. Bit rate                                 : 13.5 Mb/s
  13. Maximum bit rate                         : 15.0 Mb/s
  14. Width                                    : 1 920 pixels
  15. Height                                   : 1 080 pixels
  16. Display aspect ratio                     : 16:9
  17. Frame rate mode                          : Constant
  18. Frame rate                               : 23.976 (24000/1001) FPS
  19. Color space                              : YUV
  20. Chroma subsampling                       : 4:2:0
  21. Bit depth                                : 8 bits
  22. Scan type                                : Progressive
  23. Bits/(Pixel*Frame)                       : 0.272
  24. Stream size                              : 7.97 GiB (98%)
  25. Writing library                          : x264 core 148 r2623 d5b2374
  26. Encoding settings                        : cabac=1 / ref=4 / deblock=1:-1:-1 / analyse=0x3:0x133 / me=umh / subme=9 / psy=1 / psy_rd=1.00:0.15 / mixed_ref=1 / me_range=24 / chroma_me=1 / trellis=2 / 8x8dct=1 / cqm=0 / deadzone=21,11 / fast_pskip=1 / chroma_qp_offset=-3 / threads=34 / lookahead_threads=5 / sliced_threads=0 / nr=150 / decimate=1 / interlaced=0 / bluray_compat=0 / constrained_intra=0 / bframes=8 / b_pyramid=2 / b_adapt=2 / b_bias=0 / direct=3 / weightb=1 / open_gop=0 / weightp=2 / keyint=120 / keyint_min=61 / scenecut=0 / intra_refresh=0 / rc_lookahead=120 / rc=crf / mbtree=1 / crf=18.0 / qcomp=0.60 / qpmin=0 / qpmax=69 / qpstep=4 / vbv_maxrate=15000 / vbv_bufsize=31250 / crf_max=0.0 / nal_hrd=vbr / filler=0 / ip_ratio=1.40 / aq=3:1.00
  27. Default                                  : Yes
  28. Forced                                   : No
  29. Color range                              : Limited
  30. Color primaries                          : BT.709
  31. Transfer characteristics                 : BT.709
  32. Matrix coefficients                      : BT.709

  33. Audio
  34. ID                                       : 1
  35. Format                                   : E-AC-3
  36. Format/Info                              : Enhanced AC-3
  37. Commercial name                          : Dolby Digital Plus
  38. Codec ID                                 : A_EAC3
  39. Duration                                 : 1 h 24 min
  40. Bit rate mode                            : Constant
  41. Bit rate                                 : 224 kb/s
  42. Channel(s)                               : 2 channels
  43. Channel layout                           : L R
  44. Sampling rate                            : 48.0 kHz
  45. Frame rate                               : 31.250 FPS (1536 SPF)
  46. Compression mode                         : Lossy
  47. Stream size                              : 135 MiB (2%)
  48. Language                                 : English
  49. Service kind                             : Complete Main
  50. Default                                  : Yes
  51. Forced                                   : No

  52. Text
  53. ID                                       : 3
  54. Format                                   : UTF-8
  55. Codec ID                                 : S_TEXT/UTF8
  56. Codec ID/Info                            : UTF-8 Plain Text
  57. Duration                                 : 1 h 22 min
  58. Bit rate                                 : 77 b/s
  59. Count of elements                        : 1640
  60. Stream size                              : 46.7 KiB (0%)
  61. Default                                  : Yes
  62. Forced                                   : No
复制代码


精彩剧照

最佳玩家 Best.Player.2011.1080p.AMZN.WEBRip.DDP2.0.x264-TrollHD 8.10GB-2.png 最佳玩家 Best.Player.2011.1080p.AMZN.WEBRip.DDP2.0.x264-TrollHD 8.10GB-3.png 最佳玩家 Best.Player.2011.1080p.AMZN.WEBRip.DDP2.0.x264-TrollHD 8.10GB-4.png 最佳玩家 Best.Player.2011.1080p.AMZN.WEBRip.DDP2.0.x264-TrollHD 8.10GB-5.png 最佳玩家 Best.Player.2011.1080p.AMZN.WEBRip.DDP2.0.x264-TrollHD 8.10GB-6.png 最佳玩家 Best.Player.2011.1080p.AMZN.WEBRip.DDP2.0.x264-TrollHD 8.10GB-7.png


蓝光高清网提示您 点击下方附件名称 马上开始下载

Best.Player.2011.1080p.AMZN.WEBRip.DDP2.0.x264-TrollHD.torrent 
         (81.62 KB    阅读权限: 0)
加入蓝光高清网VIP会员  无限制下载本站所有资源---点这里

资源下载、资源播放、字幕使用、无法下载等常见问题---点这里
回复

使用道具 举报

精彩评论127

jackkoh 发表于 2019-10-27 11:11:10 | 显示全部楼层
支持一下
回复

使用道具 举报

7871 发表于 2019-10-27 11:16:35 | 显示全部楼层
不错不错,楼主您辛苦了。。。
回复

使用道具 举报

241041 发表于 2019-10-27 11:27:10 | 显示全部楼层
谢谢分享
回复

使用道具 举报

爱在家 发表于 2019-10-27 11:37:54 | 显示全部楼层
楼主幸苦了
回复

使用道具 举报

uncledos 发表于 2019-10-27 11:53:43 | 显示全部楼层
好电影 谢谢楼主分享
回复

使用道具 举报

60x 发表于 2019-10-27 12:04:24 | 显示全部楼层
蓝光高清网是个好地方
回复

使用道具 举报

JaStE 发表于 2019-10-27 12:10:01 | 显示全部楼层
这个帖子不回对不起自己!我想我是一天也不能离开蓝光高清网了
回复

使用道具 举报

syncon 发表于 2019-10-27 12:10:03 | 显示全部楼层
还是蓝光看起带劲 音效爆棚
回复

使用道具 举报

boris1128 发表于 2019-10-27 12:10:16 | 显示全部楼层
好电影 谢谢楼主分享
回复

使用道具 举报

您需要登录后才可以回帖 登录 | 立即注册

本版积分规则

关注0

粉丝1

帖子86475

发布主题
最新电影 论坛
本期活动
联系我们
点击这里联系客服

服务时间:
周一到周日8:00-23:30

  • 打开微信扫一扫
    关注公众号

  • 手机QQ扫一扫
    添加客服

手机版蓝光高清网 |网站地图

Powered by Discuz! X3.4 Licensed  © 2001-2013 Comsenz Inc.