[犯罪片] 我们和他们 Us.and.Them.2017.1080p.BluRay.REMUX.MPEG-2.DTS-HD.MA.5.1-FGT 13.15GB

[复制链接]
蓝鸟VIP会员 永久VIP 发表于 2019-10-27 11:57:58 | 显示全部楼层 |阅读模式 打印 上一主题 下一主题

马上注册,轻松下载,海量资源,让你轻松玩转社区。

您需要 登录 才可以下载或查看,没有帐号?立即注册

x
我们和他们 Us.and.Them.2017.1080p.BluRay.REMUX.MPEG-2.DTS-HD.MA.5.1-FGT 13.15GB-1.png

译  名 我们和他们 / Lucky?
片  名 Us and Them
年  代 2017
产  地 英国
类  别 剧情 / 惊悚 / 犯罪
语  言 英语
上映日期 2017-03-10(西南偏南电影节)
IMDb评分  5.2/10 from 585 users
IMDb链接  https://www.imdb.com/title/tt3592750
豆瓣评分 0/10 from 0 users
豆瓣链接 https://movie.douban.com/subject/27601856/
片  长 83分钟
导  演 Joe Martin
编  剧 Joe Martin
主  演 杰克·罗思 Jack Roth
       索菲 Sophie Colquhoun
       蒂姆·本廷克 Tim Bentinck
       Carolyn Backhouse
       安德鲁·蒂曼 Andrew Tiernan
       Daniel Kendrick
       aul Westwood
       Louis Dempsey
       丹尼尔·厄根 Daniel Eghan
       劳拉·马塔沙 Laura Matassa
       Sophie Rose Miller
       Geoffrey Osborne


标  签 [歐美] | Crime | Comedy

简  介  

  A darkly comic, raw and controversial thriller that packs a hard punch at the inequalities and divisions that led to Brexit and Trump"s victory. Danny (Jack Roth), an ordinary working class kid, is angry and frustrated at the rough deal he faces. When he confronts Conrad (Tim Bentinck) a member of today"s privileged elite, he aims to teach him and his kind a lesson they will never forget. Holding Conrad and his family hostage in their plush mansion, Danny and his pals force Conrad into a deadly game of chance. Danny"s master plan is to kick-start a revolution by streaming attacks against the super-rich one percent on the web. His ultimate goal? To terrify the elite into bringing about change. Danny"s cohorts, however, have other ideas - and in a confusing cocktail of terror, deceit and twisting narrative, we are left wondering which side people are on - and everyone"s values are questioned. With its visceral energy and unsettling stream of consciousness plot, "Us and Them" is the ...

获奖情况  

  第20届英国独立电影奖(2017)
  最佳剪辑(提名)


该资源信息参数
  1. Video
  2. ID                                       : 1
  3. Format                                   : MPEG Video
  4. Format version                           : Version 2
  5. Format profile                           : High@L4
  6. Format settings                          : CustomMatrix / BVOP
  7. Format settings, BVOP                    : Yes
  8. Format settings, Matrix                  : Custom
  9. Format settings, GOP                     : M=3, N=15
  10. Codec ID                                 : V_MPEG2
  11. Codec ID/Info                            : MPEG 1 or 2 Video
  12. Duration                                 : 1 h 22 min
  13. Bit rate mode                            : Variable
  14. Bit rate                                 : 19.7 Mb/s
  15. Maximum bit rate                         : 22.0 Mb/s
  16. Width                                    : 1 920 pixels
  17. Height                                   : 1 080 pixels
  18. Display aspect ratio                     : 16:9
  19. Frame rate mode                          : Constant
  20. Frame rate                               : 25.000 FPS
  21. Color space                              : YUV
  22. Chroma subsampling                       : 4:2:0
  23. Bit depth                                : 8 bits
  24. Scan type                                : Progressive
  25. Compression mode                         : Lossy
  26. Bits/(Pixel*Frame)                       : 0.380
  27. Time code of first frame                 : 00:00:00:00
  28. Time code source                         : Group of pictures header
  29. GOP, Open/Closed                         : Closed
  30. Stream size                              : 11.4 GiB (87%)
  31. Title                                    : Us.and.Them.2017.1080p.BluRay.REMUX.MPEG-2.DTS-HD.MA.5.1-FGT
  32. Language                                 : English
  33. Default                                  : No
  34. Forced                                   : No

  35. Audio
  36. ID                                       : 2
  37. Format                                   : DTS XLL
  38. Format/Info                              : Digital Theater Systems
  39. Commercial name                          : DTS-HD Master Audio
  40. Codec ID                                 : A_DTS
  41. Duration                                 : 1 h 22 min
  42. Bit rate mode                            : Variable
  43. Bit rate                                 : 3 067 kb/s
  44. Channel(s)                               : 6 channels
  45. Channel layout                           : C L R Ls Rs LFE
  46. Sampling rate                            : 48.0 kHz
  47. Frame rate                               : 93.750 FPS (512 SPF)
  48. Bit depth                                : 24 bits
  49. Compression mode                         : Lossless
  50. Stream size                              : 1.77 GiB (13%)
  51. Title                                    : Us.and.Them.2017.1080p.BluRay.REMUX.MPEG-2.DTS-HD.MA.5.1-FGT
  52. Language                                 : English
  53. Default                                  : Yes
  54. Forced                                   : No

  55. Menu
  56. 00:00:00.000                             : de:Chapter 01
  57. 00:09:40.000                             : de:Chapter 02
  58. 00:20:22.720                             : de:Chapter 03
  59. 00:30:36.000                             : de:Chapter 04
  60. 00:41:22.000                             : de:Chapter 05
  61. 00:52:35.800                             : de:Chapter 06
  62. 01:01:06.840                             : de:Chapter 07
  63. 01:12:04.080                             : de:Chapter 08
  64. 01:18:34.120                             : de:Chapter 09
复制代码


精彩剧照

我们和他们 Us.and.Them.2017.1080p.BluRay.REMUX.MPEG-2.DTS-HD.MA.5.1-FGT 13.15GB-2.png 我们和他们 Us.and.Them.2017.1080p.BluRay.REMUX.MPEG-2.DTS-HD.MA.5.1-FGT 13.15GB-3.png 我们和他们 Us.and.Them.2017.1080p.BluRay.REMUX.MPEG-2.DTS-HD.MA.5.1-FGT 13.15GB-4.png


蓝光高清网提示您 点击下方附件名称 马上开始下载

Us.and.Them.2017.1080p.BluRay.REMUX.MPEG-2.DTS-HD.MA.5.1-FGT.torrent (66.32 KB, 下载次数: 0)

加入蓝光高清网VIP会员  无限制下载本站所有资源---点此加入

资源下载、资源播放、字幕使用、无法下载等常见问题---点这里

回复

使用道具 举报

精彩评论112

xiaoquzq 发表于 2019-10-27 12:20:37 | 显示全部楼层
找了好久 终于找到了  谢谢分享

加入蓝光高清网VIP会员  无限制下载本站所有资源---点此加入

资源下载、资源播放、字幕使用、无法下载等常见问题---点这里

回复

使用道具 举报

范特西2006 发表于 2019-10-27 12:20:57 | 显示全部楼层
真是 收益 匪浅

加入蓝光高清网VIP会员  无限制下载本站所有资源---点此加入

资源下载、资源播放、字幕使用、无法下载等常见问题---点这里

回复

使用道具 举报

zhxymh 发表于 2019-10-27 12:26:16 | 显示全部楼层
下载来看看

加入蓝光高清网VIP会员  无限制下载本站所有资源---点此加入

资源下载、资源播放、字幕使用、无法下载等常见问题---点这里

回复

使用道具 举报

xiejiait 发表于 2019-10-27 12:42:08 | 显示全部楼层
好资源 收藏了 谢谢分享

加入蓝光高清网VIP会员  无限制下载本站所有资源---点此加入

资源下载、资源播放、字幕使用、无法下载等常见问题---点这里

回复

使用道具 举报

bracez 发表于 2019-10-27 12:54:27 | 显示全部楼层
不管怎么说就是支持,感谢版主的无私付出

加入蓝光高清网VIP会员  无限制下载本站所有资源---点此加入

资源下载、资源播放、字幕使用、无法下载等常见问题---点这里

回复

使用道具 举报

249572149 发表于 2019-10-27 13:05:05 | 显示全部楼层
支持一下

加入蓝光高清网VIP会员  无限制下载本站所有资源---点此加入

资源下载、资源播放、字幕使用、无法下载等常见问题---点这里

回复

使用道具 举报

fansman 发表于 2019-10-27 13:15:23 | 显示全部楼层
路过,学习下

加入蓝光高清网VIP会员  无限制下载本站所有资源---点此加入

资源下载、资源播放、字幕使用、无法下载等常见问题---点这里

回复

使用道具 举报

外汇之门 发表于 2019-10-27 13:20:59 | 显示全部楼层
楼主发贴辛苦了,谢谢楼主分享!

加入蓝光高清网VIP会员  无限制下载本站所有资源---点此加入

资源下载、资源播放、字幕使用、无法下载等常见问题---点这里

回复

使用道具 举报

xinxinsky 发表于 2019-10-27 13:21:09 | 显示全部楼层
我们和他们 Us.and.Them.2017.1080p.BluRay.REMUX.MPEG-2.DTS-HD.MA.5.1-FGT 13.15GB

加入蓝光高清网VIP会员  无限制下载本站所有资源---点此加入

资源下载、资源播放、字幕使用、无法下载等常见问题---点这里

回复

使用道具 举报

懒得打字嘛,点击右侧快捷回复
您需要登录后才可以回帖 登录 | 立即注册

本版积分规则

关注0

粉丝0

帖子69282

发布主题
最新电影 论坛
广告位
联系我们
点击这里联系客服

服务时间:
周一到周日8:00-23:30

  • 打开微信扫一扫
    关注公众号

  • 手机QQ扫一扫
    添加客服

Archiver手机版蓝光高清网 ( 渝ICP备18006373号-2 )|网站地图

Powered by Discuz! X3.4  © 2001-2013 Comsenz Inc.