[科幻片] 寄生魔种 Parasite.1982.1080p.BluRay.REMUX.AVC.DTS-HD.MA.5.1-FGT 16.45GB

[复制链接]
蓝鸟VIP会员 永久VIP 发表于 2019-10-27 11:58:49 | 显示全部楼层 |阅读模式 打印 上一主题 下一主题

马上注册,轻松下载,海量资源,让你轻松玩转社区。

您需要 登录 才可以下载或查看,没有帐号?立即注册

x
寄生魔种 Parasite.1982.1080p.BluRay.REMUX.AVC.DTS-HD.MA.5.1-FGT 16.45GB-1.png

译  名 寄生魔种
片  名 Parasite
年  代 1982
产  地 美国
类  别 科幻 / 恐怖
语  言 英语
上映日期 1982-03-12
IMDb评分  3.8/10 from 1870 users
IMDb链接  https://www.imdb.com/title/tt0084472
豆瓣评分 5.8/10 from 48 users
豆瓣链接 https://movie.douban.com/subject/1294232/
片  长 85 分钟
导  演 查尔斯 班德 (Charles Band)
编  剧 Alan J. Adler / Frank Levering / Michael Shoob

标  签 恐怖 | 怪物 | 美国电影 | 科幻 | 邪典 | CULT | 恐怖片 | 满月

简  介  

  Paul Dean has created a deadly parasite that is now attached to his stomach. He and his female companion, Patricia Welles, must find away to destroy it while also trying to avoid Ricus and his rednecks and an evil government agent named Merchant.


该资源信息参数
  1. Video
  2. ID                                       : 1
  3. Format                                   : AVC
  4. Format/Info                              : Advanced Video Codec
  5. Format profile                           : High@L4
  6. Format settings                          : CABAC / 2 Ref Frames
  7. Format settings, CABAC                   : Yes
  8. Format settings, Reference frames        : 2 frames
  9. Format settings, GOP                     : M=1, N=5
  10. Codec ID                                 : V_MPEG4/ISO/AVC
  11. Duration                                 : 1 h 24 min
  12. Bit rate mode                            : Variable
  13. Bit rate                                 : 19.4 Mb/s
  14. Maximum bit rate                         : 35.2 Mb/s
  15. Width                                    : 1 920 pixels
  16. Height                                   : 1 080 pixels
  17. Display aspect ratio                     : 16:9
  18. Frame rate mode                          : Constant
  19. Frame rate                               : 23.976 (24000/1001) FPS
  20. Color space                              : YUV
  21. Chroma subsampling                       : 4:2:0
  22. Bit depth                                : 8 bits
  23. Scan type                                : Progressive
  24. Bits/(Pixel*Frame)                       : 0.390
  25. Stream size                              : 11.4 GiB (70%)
  26. Title                                    : Parasite.1982.1080p.BluRay.REMUX.AVC.DTS-HD.MA.5.1-FGT
  27. Language                                 : English
  28. Default                                  : No
  29. Forced                                   : No

  30. Audio #1
  31. ID                                       : 2
  32. Format                                   : DTS XLL
  33. Format/Info                              : Digital Theater Systems
  34. Commercial name                          : DTS-HD Master Audio
  35. Codec ID                                 : A_DTS
  36. Duration                                 : 1 h 24 min
  37. Bit rate mode                            : Variable
  38. Bit rate                                 : 3 308 kb/s
  39. Channel(s)                               : 6 channels
  40. Channel layout                           : C L R Ls Rs LFE
  41. Sampling rate                            : 48.0 kHz
  42. Frame rate                               : 93.750 FPS (512 SPF)
  43. Bit depth                                : 24 bits
  44. Compression mode                         : Lossless
  45. Stream size                              : 1.95 GiB (12%)
  46. Title                                    : Parasite.1982.1080p.BluRay.REMUX.AVC.DTS-HD.MA.5.1-FGT
  47. Language                                 : English
  48. Default                                  : Yes
  49. Forced                                   : No

  50. Audio #2
  51. ID                                       : 3
  52. Format                                   : DTS
  53. Format/Info                              : Digital Theater Systems
  54. Codec ID                                 : A_DTS
  55. Duration                                 : 1 h 24 min
  56. Bit rate mode                            : Constant
  57. Bit rate                                 : 1 509 kb/s
  58. Channel(s)                               : 6 channels
  59. Channel layout                           : C L R Ls Rs LFE
  60. Sampling rate                            : 48.0 kHz
  61. Frame rate                               : 93.750 FPS (512 SPF)
  62. Bit depth                                : 24 bits
  63. Compression mode                         : Lossy
  64. Stream size                              : 913 MiB (5%)
  65. Title                                    : Parasite.1982.1080p.BluRay.REMUX.AVC.DTS-HD.MA.5.1-FGT
  66. Language                                 : English
  67. Default                                  : No
  68. Forced                                   : No

  69. Audio #3
  70. ID                                       : 4
  71. Format                                   : DTS XLL
  72. Format/Info                              : Digital Theater Systems
  73. Commercial name                          : DTS-HD Master Audio
  74. Codec ID                                 : A_DTS
  75. Duration                                 : 1 h 24 min
  76. Bit rate mode                            : Variable
  77. Bit rate                                 : 2 050 kb/s
  78. Channel(s)                               : 2 channels
  79. Channel layout                           : L R
  80. Sampling rate                            : 48.0 kHz
  81. Frame rate                               : 93.750 FPS (512 SPF)
  82. Bit depth                                : 24 bits
  83. Compression mode                         : Lossless
  84. Stream size                              : 1.21 GiB (7%)
  85. Title                                    : Parasite.1982.1080p.BluRay.REMUX.AVC.DTS-HD.MA.5.1-FGT
  86. Language                                 : English
  87. Default                                  : No
  88. Forced                                   : No

  89. Audio #4
  90. ID                                       : 5
  91. Format                                   : DTS XLL
  92. Format/Info                              : Digital Theater Systems
  93. Commercial name                          : DTS-HD Master Audio
  94. Codec ID                                 : A_DTS
  95. Duration                                 : 1 h 24 min
  96. Bit rate mode                            : Variable
  97. Bit rate                                 : 1 591 kb/s
  98. Channel(s)                               : 2 channels
  99. Channel layout                           : L R
  100. Sampling rate                            : 48.0 kHz
  101. Frame rate                               : 93.750 FPS (512 SPF)
  102. Bit depth                                : 16 bits
  103. Compression mode                         : Lossless
  104. Stream size                              : 962 MiB (6%)
  105. Title                                    : Parasite.1982.1080p.BluRay.REMUX.AVC.DTS-HD.MA.5.1-FGT
  106. Language                                 : English
  107. Default                                  : No
  108. Forced                                   : No

  109. Text
  110. ID                                       : 6
  111. Format                                   : PGS
  112. Muxing mode                              : zlib
  113. Codec ID                                 : S_HDMV/PGS
  114. Codec ID/Info                            : Picture based subtitle format used on BDs/HD-DVDs
  115. Duration                                 : 1 h 12 min
  116. Bit rate                                 : 19.7 kb/s
  117. Count of elements                        : 1142
  118. Stream size                              : 10.3 MiB (0%)
  119. Title                                    : English-PGS
  120. Language                                 : English
  121. Default                                  : Yes
  122. Forced                                   : No

  123. Menu
  124. 00:00:00.000                             : en:Chapter 01
  125. 00:07:25.820                             : en:Chapter 02
  126. 00:16:09.635                             : en:Chapter 03
  127. 00:22:53.038                             : en:Chapter 04
  128. 00:29:28.141                             : en:Chapter 05
  129. 00:37:49.850                             : en:Chapter 06
  130. 00:46:40.464                             : en:Chapter 07
  131. 00:55:11.099                             : en:Chapter 08
  132. 01:02:50.683                             : en:Chapter 09
  133. 01:12:27.301                             : en:Chapter 10
  134. 01:20:26.238                             : en:Chapter 11
复制代码


精彩剧照

寄生魔种 Parasite.1982.1080p.BluRay.REMUX.AVC.DTS-HD.MA.5.1-FGT 16.45GB-2.png 寄生魔种 Parasite.1982.1080p.BluRay.REMUX.AVC.DTS-HD.MA.5.1-FGT 16.45GB-3.png 寄生魔种 Parasite.1982.1080p.BluRay.REMUX.AVC.DTS-HD.MA.5.1-FGT 16.45GB-4.png


蓝光高清网提示您 点击下方附件名称 马上开始下载

Parasite.1982.1080p.BluRay.REMUX.AVC.DTS-HD.MA.5.1-FGT.torrent (82.79 KB, 下载次数: 0)

加入蓝光高清网VIP会员  无限制下载本站所有资源---点此加入

资源下载、资源播放、字幕使用、无法下载等常见问题---点这里

回复

使用道具 举报

精彩评论115

yiyee123 发表于 2019-10-27 12:09:49 | 显示全部楼层
下载试一试

加入蓝光高清网VIP会员  无限制下载本站所有资源---点此加入

资源下载、资源播放、字幕使用、无法下载等常见问题---点这里

回复

使用道具 举报

madmanmars 发表于 2019-10-27 12:10:14 | 显示全部楼层
楼主幸苦了

加入蓝光高清网VIP会员  无限制下载本站所有资源---点此加入

资源下载、资源播放、字幕使用、无法下载等常见问题---点这里

回复

使用道具 举报

a88225573 发表于 2019-10-27 12:10:16 | 显示全部楼层
好资源 收藏了 谢谢分享

加入蓝光高清网VIP会员  无限制下载本站所有资源---点此加入

资源下载、资源播放、字幕使用、无法下载等常见问题---点这里

回复

使用道具 举报

daidai110 发表于 2019-10-27 12:26:20 | 显示全部楼层
谢谢分享

加入蓝光高清网VIP会员  无限制下载本站所有资源---点此加入

资源下载、资源播放、字幕使用、无法下载等常见问题---点这里

回复

使用道具 举报

manyou12 发表于 2019-10-27 12:31:38 | 显示全部楼层
好电影 谢谢楼主分享

加入蓝光高清网VIP会员  无限制下载本站所有资源---点此加入

资源下载、资源播放、字幕使用、无法下载等常见问题---点这里

回复

使用道具 举报

hliu26175 发表于 2019-10-27 12:42:18 | 显示全部楼层
感谢楼主的无私分享!

加入蓝光高清网VIP会员  无限制下载本站所有资源---点此加入

资源下载、资源播放、字幕使用、无法下载等常见问题---点这里

回复

使用道具 举报

feidiyasi 发表于 2019-10-27 12:53:47 | 显示全部楼层
lkjlsdfadfsfasasdfasfa

加入蓝光高清网VIP会员  无限制下载本站所有资源---点此加入

资源下载、资源播放、字幕使用、无法下载等常见问题---点这里

回复

使用道具 举报

lsg328 发表于 2019-10-27 12:53:53 | 显示全部楼层
不错不错,楼主您辛苦了。。。

加入蓝光高清网VIP会员  无限制下载本站所有资源---点此加入

资源下载、资源播放、字幕使用、无法下载等常见问题---点这里

回复

使用道具 举报

etop_lg 发表于 2019-10-27 12:53:57 | 显示全部楼层
谢谢分享

加入蓝光高清网VIP会员  无限制下载本站所有资源---点此加入

资源下载、资源播放、字幕使用、无法下载等常见问题---点这里

回复

使用道具 举报

懒得打字嘛,点击右侧快捷回复
您需要登录后才可以回帖 登录 | 立即注册

本版积分规则

关注0

粉丝0

帖子69282

发布主题
最新电影 论坛
广告位
联系我们
点击这里联系客服

服务时间:
周一到周日8:00-23:30

  • 打开微信扫一扫
    关注公众号

  • 手机QQ扫一扫
    添加客服

Archiver手机版蓝光高清网 ( 渝ICP备18006373号-2 )|网站地图

Powered by Discuz! X3.4  © 2001-2013 Comsenz Inc.