[剧情片] 英雄 Hero.2002.DC.CHINESE.1080p.BluRay.REMUX.AVC.DTS-HD.MA.6.1-FGT 31.45GB

[复制链接]
蓝鸟VIP会员 永久VIP 发表于 2019-10-27 11:59:39 | 显示全部楼层 |阅读模式 打印 上一主题 下一主题

马上注册,轻松下载,海量资源,让你轻松玩转社区。

您需要 登录 才可以下载或查看,没有帐号?立即注册

x
英雄 Hero.2002.DC.CHINESE.1080p.BluRay.REMUX.AVC.DTS-HD.MA.6.1-FGT 31.45GB-1.png

译  名 Hero
片  名 英雄
年  代 2002
产  地 中国大陆 / 中国香港
类  别 剧情 / 动作 / 武侠 / 古装
语  言 汉语普通话
上映日期 2002-12-19(中国大陆/香港)
IMDb评分  7.9/10 from 167790 users
IMDb链接  https://www.imdb.com/title/tt0299977
豆瓣评分 7.3/10 from 196208 users
豆瓣链接 https://movie.douban.com/subject/1306123/
片  长 93分钟(中国大陆)
导  演 张艺谋 Yimou Zhang
编  剧 李冯 Feng Li / 张艺谋 Yimou Zhang / 王斌 Bin Wang
主  演 李连杰 Jet Li
       梁朝伟 Tony Leung Chiu Wai
       张曼玉 Maggie Cheung
       章子怡 Ziyi Zhang
       陈道明 Daoming Chen
       甄子丹 Donnie Yen


标  签 张艺谋 | 武侠 | 梁朝伟 | 动作 | 中国 | 李连杰 | 张曼玉 | 章子怡

简  介  

  战国末期,燕、赵、楚、韩、魏、齐、秦七雄并起,惟秦国最为强大,急欲吞并六国一统天下,秦王(陈道明)因此成为六国大敌,各地不同的刺秦故事一直在上演,其中赵国刺客残剑(梁朝伟)、飞雪(张曼玉)、如月(章子怡)、长空(甄子丹)因名震天下的高超剑术,令秦王十年里没睡过一个安稳觉。
  某日闻得残剑等人已被名叫无名(李连杰)的秦国剑客杀死,秦王大喜急召其上殿相见,却也谨慎小心以防有诈,秦王和无名斗智斗勇的较量遂即展开。

获奖情况  

  第75届奥斯卡金像奖(2003)
  最佳围语片(提名) 张艺谋

  第53届柏林国际电影节(2003)
  金熊奖 最佳影片(提名) 张艺谋
  银熊奖 阿弗雷鲍尔奖 张艺谋

  第22届香港电影金像奖(2003)
  最佳电影(提名)
  最佳导演(提名) 张艺谋
  最佳编剧(提名) 王斌 / 张艺谋 / 李冯
  最佳女主角(提名) 张曼玉
  最佳女配角(提名) 章子怡
  最佳摄影 杜可风
  最佳剪接(提名) 林安儿 / 翟茹
  最佳美术指导 易振洲 / 霍廷霄
  最佳服装造型设计 和田惠美
  最佳动作设计 程小东
  最佳原创电影音乐 谭盾
  最佳原创电影歌曲(提名) 王菲
  最佳音响效果 陶经
  最佳视觉效果 Christopher Horvath / 穆雷·蒲柏 / Jonathan Rothbart / 潘国瑜

  第23届中国电影金鸡奖(2003)
  最佳导演 张艺谋
  最佳合拍片
  最佳美术 易振洲 / 霍廷霄
  最佳录音 陶经

  第3届华语电影传媒大奖(2003)
  最受欢迎华语电影

  第10届北京大妹生电影节(2003)
  最佳观赏效果奖
  中国电影杰出贡献奖 张艺谋


该资源信息参数
  1. Video
  2. ID                                       : 1
  3. Format                                   : AVC
  4. Format/Info                              : Advanced Video Codec
  5. Format profile                           : High@L4
  6. Format settings                          : CABAC / 4 Ref Frames
  7. Format settings, CABAC                   : Yes
  8. Format settings, Reference frames        : 4 frames
  9. Format settings, GOP                     : M=3, N=24
  10. Codec ID                                 : V_MPEG4/ISO/AVC
  11. Duration                                 : 1 h 49 min
  12. Bit rate mode                            : Variable
  13. Bit rate                                 : 35.0 Mb/s
  14. Maximum bit rate                         : 37.0 Mb/s
  15. Width                                    : 1 920 pixels
  16. Height                                   : 1 080 pixels
  17. Display aspect ratio                     : 16:9
  18. Frame rate mode                          : Constant
  19. Frame rate                               : 24.000 FPS
  20. Standard                                 : NTSC
  21. Color space                              : YUV
  22. Chroma subsampling                       : 4:2:0
  23. Bit depth                                : 8 bits
  24. Scan type                                : Progressive
  25. Bits/(Pixel*Frame)                       : 0.703
  26. Stream size                              : 26.7 GiB (85%)
  27. Title                                    : Hero.2002.DC.CHINESE.1080p.BluRay.REMUX.AVC.DTS-HD.MA.6.1-FGT
  28. Language                                 : English
  29. Default                                  : No
  30. Forced                                   : No
  31. Color range                              : Limited
  32. Color primaries                          : BT.709
  33. Transfer characteristics                 : BT.709
  34. Matrix coefficients                      : BT.709

  35. Audio #1
  36. ID                                       : 2
  37. Format                                   : DTS ES XXCH XLL
  38. Format/Info                              : Digital Theater Systems
  39. Commercial name                          : DTS-HD Master Audio
  40. Codec ID                                 : A_DTS
  41. Duration                                 : 1 h 49 min
  42. Bit rate mode                            : Variable
  43. Bit rate                                 : 4 667 kb/s
  44. Channel(s)                               : 7 channels
  45. Channel layout                           : C L R Ls Rs LFE Cb
  46. Sampling rate                            : 48.0 kHz
  47. Frame rate                               : 93.750 FPS (512 SPF)
  48. Bit depth                                : 24 bits
  49. Compression mode                         : Lossless
  50. Stream size                              : 3.57 GiB (11%)
  51. Title                                    : Hero.2002.DC.CHINESE.1080p.BluRay.REMUX.AVC.DTS-HD.MA.6.1-FGT
  52. Language                                 : Chinese
  53. Default                                  : Yes
  54. Forced                                   : No

  55. Audio #2
  56. ID                                       : 3
  57. Format                                   : DTS ES XXCH
  58. Format/Info                              : Digital Theater Systems
  59. Commercial name                          : DTS-ES Discrete
  60. Codec ID                                 : A_DTS
  61. Duration                                 : 1 h 49 min
  62. Bit rate mode                            : Constant
  63. Bit rate                                 : 1 509 kb/s
  64. Channel(s)                               : 6 channels
  65. Channel(s)_Original                      : 7 channels
  66. Channel layout                           : C L R Ls Rs Cb LFE
  67. Sampling rate                            : 48.0 kHz
  68. Frame rate                               : 93.750 FPS (512 SPF)
  69. Bit depth                                : 24 bits
  70. Compression mode                         : Lossy
  71. Stream size                              : 1.15 GiB (4%)
  72. Title                                    : Hero.2002.DC.CHINESE.1080p.BluRay.REMUX.AVC.DTS-HD.MA.6.1-FGT
  73. Language                                 : Chinese
  74. Default                                  : No
  75. Forced                                   : No

  76. Text #1
  77. ID                                       : 4
  78. Format                                   : PGS
  79. Muxing mode                              : zlib
  80. Codec ID                                 : S_HDMV/PGS
  81. Codec ID/Info                            : Picture based subtitle format used on BDs/HD-DVDs
  82. Duration                                 : 1 h 40 min
  83. Bit rate                                 : 19.3 kb/s
  84. Count of elements                        : 1324
  85. Stream size                              : 13.9 MiB (0%)
  86. Title                                    : English-PGS
  87. Language                                 : English
  88. Default                                  : Yes
  89. Forced                                   : No

  90. Text #2
  91. ID                                       : 5
  92. Format                                   : PGS
  93. Muxing mode                              : zlib
  94. Codec ID                                 : S_HDMV/PGS
  95. Codec ID/Info                            : Picture based subtitle format used on BDs/HD-DVDs
  96. Duration                                 : 1 h 43 min
  97. Bit rate                                 : 13.8 kb/s
  98. Count of elements                        : 1046
  99. Stream size                              : 10.2 MiB (0%)
  100. Title                                    : Korean-PGS
  101. Language                                 : Korean
  102. Default                                  : No
  103. Forced                                   : No

  104. Menu
  105. 00:00:00.000                             : en:Chapter 01
  106. 00:07:33.666                             : en:Chapter 02
  107. 00:15:56.708                             : en:Chapter 03
  108. 00:28:55.666                             : en:Chapter 04
  109. 00:37:46.500                             : en:Chapter 05
  110. 00:46:45.958                             : en:Chapter 06
  111. 00:54:33.916                             : en:Chapter 07
  112. 01:04:24.708                             : en:Chapter 08
  113. 01:12:19.375                             : en:Chapter 09
  114. 01:21:34.583                             : en:Chapter 10
  115. 01:29:06.375                             : en:Chapter 11
  116. 01:39:19.458                             : en:Chapter 12
复制代码


精彩剧照

英雄 Hero.2002.DC.CHINESE.1080p.BluRay.REMUX.AVC.DTS-HD.MA.6.1-FGT 31.45GB-2.png 英雄 Hero.2002.DC.CHINESE.1080p.BluRay.REMUX.AVC.DTS-HD.MA.6.1-FGT 31.45GB-3.png 英雄 Hero.2002.DC.CHINESE.1080p.BluRay.REMUX.AVC.DTS-HD.MA.6.1-FGT 31.45GB-4.png


蓝光高清网提示您 点击下方附件名称 马上开始下载

Hero.2002.DC.CHINESE.1080p.BluRay.REMUX.AVC.DTS-HD.MA.6.1-FGT.torrent (79.2 KB, 下载次数: 3)

加入蓝光高清网VIP会员  无限制下载本站所有资源---点此加入

资源下载、资源播放、字幕使用、无法下载等常见问题---点这里

回复

使用道具 举报

精彩评论114

Loveshell 发表于 2019-10-27 12:09:46 | 显示全部楼层
感谢楼主的无私分享!

加入蓝光高清网VIP会员  无限制下载本站所有资源---点此加入

资源下载、资源播放、字幕使用、无法下载等常见问题---点这里

回复

使用道具 举报

hqingxi 发表于 2019-10-27 12:15:17 | 显示全部楼层
不管怎么说就是支持,感谢版主的无私付出

加入蓝光高清网VIP会员  无限制下载本站所有资源---点此加入

资源下载、资源播放、字幕使用、无法下载等常见问题---点这里

回复

使用道具 举报

cxg4321 发表于 2019-10-27 12:21:01 | 显示全部楼层
找了好久 终于找到了  谢谢分享

加入蓝光高清网VIP会员  无限制下载本站所有资源---点此加入

资源下载、资源播放、字幕使用、无法下载等常见问题---点这里

回复

使用道具 举报

杰然 发表于 2019-10-27 12:31:38 | 显示全部楼层
sssssssssssssssssss

加入蓝光高清网VIP会员  无限制下载本站所有资源---点此加入

资源下载、资源播放、字幕使用、无法下载等常见问题---点这里

回复

使用道具 举报

linglog56 发表于 2019-10-27 12:54:16 | 显示全部楼层
学习了,谢谢分享、、、

加入蓝光高清网VIP会员  无限制下载本站所有资源---点此加入

资源下载、资源播放、字幕使用、无法下载等常见问题---点这里

回复

使用道具 举报

hjs620040 发表于 2019-10-27 12:59:37 | 显示全部楼层
帮帮顶顶!!

加入蓝光高清网VIP会员  无限制下载本站所有资源---点此加入

资源下载、资源播放、字幕使用、无法下载等常见问题---点这里

回复

使用道具 举报

theda 发表于 2019-10-27 13:04:54 | 显示全部楼层
楼主幸苦了

加入蓝光高清网VIP会员  无限制下载本站所有资源---点此加入

资源下载、资源播放、字幕使用、无法下载等常见问题---点这里

回复

使用道具 举报

z363046305 发表于 2019-10-27 13:20:59 | 显示全部楼层
楼主,我太崇拜你了!

加入蓝光高清网VIP会员  无限制下载本站所有资源---点此加入

资源下载、资源播放、字幕使用、无法下载等常见问题---点这里

回复

使用道具 举报

894331 发表于 2019-10-27 13:20:59 | 显示全部楼层
谢谢版主 希望坚持下去 好资源

加入蓝光高清网VIP会员  无限制下载本站所有资源---点此加入

资源下载、资源播放、字幕使用、无法下载等常见问题---点这里

回复

使用道具 举报

懒得打字嘛,点击右侧快捷回复
您需要登录后才可以回帖 登录 | 立即注册

本版积分规则

关注0

粉丝0

帖子69282

发布主题
最新电影 论坛
广告位
联系我们
点击这里联系客服

服务时间:
周一到周日8:00-23:30

  • 打开微信扫一扫
    关注公众号

  • 手机QQ扫一扫
    添加客服

Archiver手机版蓝光高清网 ( 渝ICP备18006373号-2 )|网站地图

Powered by Discuz! X3.4  © 2001-2013 Comsenz Inc.