[剧情片] 附加平庸 Extra.Ordinary.2019.1080p.BluRay.REMUX.AVC.DTS-HD.MA.5.1-FGT 23.98GB

[复制链接]
蓝鸟VIP会员 永久VIP 发表于 2019-10-27 12:00:28 | 显示全部楼层 |阅读模式 打印 上一主题 下一主题

马上注册,轻松下载,海量资源,让你轻松玩转社区。

您需要 登录 才可以下载或查看,没有帐号?立即注册

x
附加平庸 Extra.Ordinary.2019.1080p.BluRay.REMUX.AVC.DTS-HD.MA.5.1-FGT 23.98GB-1.png

译  名 附加平庸
片  名 Extra Ordinary
年  代 2019
产  地 爱尔兰 Ireland / 比利时 Belgium
类  别 喜剧 / 奇幻
语  言 英语
上映日期 2019-03-10(西南偏南电影节)
IMDb评分  7.1/10 from 514 users
IMDb链接  https://www.imdb.com/title/tt8233874
豆瓣评分 0/10 from 0 users
豆瓣链接 https://movie.douban.com/subject/30483355/
导  演 Mike Ahern / Enda Loughman
编  剧 Mike Ahern / Demian Fox / Maeve Higgins / Enda Loughman
主  演 Maeve Higgins,
       巴里·沃德 Barry Ward
       威尔·福特 Will Forte


标  签 奇幻 | 爱尔兰 | 喜剧 | cult | 爱尔兰电影 | 惊悚 | 独立电影 | 电影

简  介  

  Rose, a sweet, small town driving instructor, is gifted with supernatural abilities, "The Talents", which mean she can talk to the spirit world. Rose has a love hate relationship with her abilities, after seeing what they did to her Dad, Vincent, and tries to ignore the constant small-time spiritual requests from locals - haunted rubbish bins, tractors, children"s bikes, frying pans etc, etc. Yet when her help is requested by Sarah, a teenager whose father, Martin, is being haunted by his deceased nagging wife, she is very tempted...Martin seems like a very nice man! Meanwhile, in a large castle outside town, Christian Winter, a washed up rock star, has a sinister plan to sell his soul for renewed success. He needs to sacrifice a virgin and puts a spell on Sarah, leaving her in a levitating catatonic state. Martin, bewildered, asks Rose to help him save his daughter. Martin and Rose set about trying to break the spell which requires the speedy exorcism of many ghosts before the spell ...


该资源信息参数
  1. Video
  2. ID                                       : 1
  3. Format                                   : AVC
  4. Format/Info                              : Advanced Video Codec
  5. Format profile                           : High@L4
  6. Format settings                          : CABAC / 4 Ref Frames
  7. Format settings, CABAC                   : Yes
  8. Format settings, Reference frames        : 4 frames
  9. Codec ID                                 : V_MPEG4/ISO/AVC
  10. Duration                                 : 1 h 34 min
  11. Bit rate mode                            : Variable
  12. Bit rate                                 : 32.9 Mb/s
  13. Maximum bit rate                         : 36.0 Mb/s
  14. Width                                    : 1 920 pixels
  15. Height                                   : 1 080 pixels
  16. Display aspect ratio                     : 16:9
  17. Frame rate mode                          : Constant
  18. Frame rate                               : 24.000 FPS
  19. Color space                              : YUV
  20. Chroma subsampling                       : 4:2:0
  21. Bit depth                                : 8 bits
  22. Scan type                                : Progressive
  23. Bits/(Pixel*Frame)                       : 0.660
  24. Stream size                              : 21.7 GiB (90%)
  25. Title                                    : Extra.Ordinary.2019.1080p.BluRay.REMUX.AVC.DTS-HD.MA.5.1-FGT
  26. Language                                 : English
  27. Default                                  : No
  28. Forced                                   : No

  29. Audio
  30. ID                                       : 2
  31. Format                                   : DTS XLL
  32. Format/Info                              : Digital Theater Systems
  33. Commercial name                          : DTS-HD Master Audio
  34. Codec ID                                 : A_DTS
  35. Duration                                 : 1 h 34 min
  36. Bit rate mode                            : Variable
  37. Bit rate                                 : 3 528 kb/s
  38. Channel(s)                               : 6 channels
  39. Channel layout                           : C L R Ls Rs LFE
  40. Sampling rate                            : 48.0 kHz
  41. Frame rate                               : 93.750 FPS (512 SPF)
  42. Bit depth                                : 24 bits
  43. Compression mode                         : Lossless
  44. Stream size                              : 2.33 GiB (10%)
  45. Title                                    : Extra.Ordinary.2019.1080p.BluRay.REMUX.AVC.DTS-HD.MA.5.1-FGT
  46. Language                                 : English
  47. Default                                  : Yes
  48. Forced                                   : No

  49. Menu
  50. 00:00:00.000                             : en:Chapter 01
  51. 00:10:08.541                             : en:Chapter 02
  52. 00:20:12.666                             : en:Chapter 03
  53. 00:28:46.500                             : en:Chapter 04
  54. 00:36:38.958                             : en:Chapter 05
  55. 00:46:45.250                             : en:Chapter 06
  56. 00:57:59.291                             : en:Chapter 07
  57. 01:06:36.541                             : en:Chapter 08
  58. 01:17:14.750                             : en:Chapter 09
  59. 01:28:53.458                             : en:Chapter 10
复制代码


精彩剧照

附加平庸 Extra.Ordinary.2019.1080p.BluRay.REMUX.AVC.DTS-HD.MA.5.1-FGT 23.98GB-2.png 附加平庸 Extra.Ordinary.2019.1080p.BluRay.REMUX.AVC.DTS-HD.MA.5.1-FGT 23.98GB-3.png 附加平庸 Extra.Ordinary.2019.1080p.BluRay.REMUX.AVC.DTS-HD.MA.5.1-FGT 23.98GB-4.png


蓝光高清网提示您 点击下方附件名称 马上开始下载

Extra.Ordinary.2019.1080p.BluRay.REMUX.AVC.DTS-HD.MA.5.1-FGT.torrent (60.5 KB, 下载次数: 0)

加入蓝光高清网VIP会员  无限制下载本站所有资源---点此加入

资源下载、资源播放、字幕使用、无法下载等常见问题---点这里

回复

使用道具 举报

精彩评论118

tianyongqing 发表于 2019-10-27 12:04:34 | 显示全部楼层
谢谢分享

加入蓝光高清网VIP会员  无限制下载本站所有资源---点此加入

资源下载、资源播放、字幕使用、无法下载等常见问题---点这里

回复

使用道具 举报

00123456789 发表于 2019-10-27 12:10:02 | 显示全部楼层
路过,学习下

加入蓝光高清网VIP会员  无限制下载本站所有资源---点此加入

资源下载、资源播放、字幕使用、无法下载等常见问题---点这里

回复

使用道具 举报

一片秋叶黄 发表于 2019-10-27 12:21:07 | 显示全部楼层
附加平庸 Extra.Ordinary.2019.1080p.BluRay.REMUX.AVC.DTS-HD.MA.5.1-FGT 23.98GB

加入蓝光高清网VIP会员  无限制下载本站所有资源---点此加入

资源下载、资源播放、字幕使用、无法下载等常见问题---点这里

回复

使用道具 举报

w99 发表于 2019-10-27 12:26:37 | 显示全部楼层
感谢楼主的无私分享!

加入蓝光高清网VIP会员  无限制下载本站所有资源---点此加入

资源下载、资源播放、字幕使用、无法下载等常见问题---点这里

回复

使用道具 举报

水晶木瓜 发表于 2019-10-27 12:54:07 | 显示全部楼层
真是 收益 匪浅

加入蓝光高清网VIP会员  无限制下载本站所有资源---点此加入

资源下载、资源播放、字幕使用、无法下载等常见问题---点这里

回复

使用道具 举报

poheart.com 发表于 2019-10-27 13:20:59 | 显示全部楼层
楼主发贴辛苦了,谢谢楼主分享!

加入蓝光高清网VIP会员  无限制下载本站所有资源---点此加入

资源下载、资源播放、字幕使用、无法下载等常见问题---点这里

回复

使用道具 举报

zzydy261 发表于 2019-10-27 13:21:00 | 显示全部楼层
蓝光高清网是个好地方

加入蓝光高清网VIP会员  无限制下载本站所有资源---点此加入

资源下载、资源播放、字幕使用、无法下载等常见问题---点这里

回复

使用道具 举报

dokushinda 发表于 2019-10-27 13:21:00 | 显示全部楼层
支持一下

加入蓝光高清网VIP会员  无限制下载本站所有资源---点此加入

资源下载、资源播放、字幕使用、无法下载等常见问题---点这里

回复

使用道具 举报

joesty 发表于 2019-10-27 13:21:05 | 显示全部楼层
不管怎么说就是支持,感谢版主的无私付出

加入蓝光高清网VIP会员  无限制下载本站所有资源---点此加入

资源下载、资源播放、字幕使用、无法下载等常见问题---点这里

回复

使用道具 举报

懒得打字嘛,点击右侧快捷回复
您需要登录后才可以回帖 登录 | 立即注册

本版积分规则

关注0

粉丝0

帖子69282

发布主题
最新电影 论坛
广告位
联系我们
点击这里联系客服

服务时间:
周一到周日8:00-23:30

  • 打开微信扫一扫
    关注公众号

  • 手机QQ扫一扫
    添加客服

Archiver手机版蓝光高清网 ( 渝ICP备18006373号-2 )|网站地图

Powered by Discuz! X3.4  © 2001-2013 Comsenz Inc.