[历史纪录片] 真实影像:[开国大典][彩色修复版/国语中字][聆听毛主席当年使用九头鸟扩音机/向全国人民讲话真实声音]

[复制链接]
MYadminwl*#VIP会员 年费VIP会员 发表于 2019-11-7 09:52:01 | 显示全部楼层 |阅读模式 打印 上一主题 下一主题

马上注册,轻松下载,海量资源,让你轻松玩转社区。

您需要 登录 才可以下载或查看,没有帐号?立即注册

x
真实影像:[开国大典][彩色修复版/国语中字][聆听毛主席当年使用九头鸟扩音机/向全国人民讲话真实声音]

中文名称:中华人民共和国中央人民政府成立典礼

中文简称: 开国大典

年        代:
1949年

开始日期:1949年10月1日15:00

所      属:  历史事件

地      点:北京天安门

意      义:中华人民共和国成立的标志

主要人物 :
毛泽东、朱德、周恩来等

剧情介绍:

         今天,中央档案馆精选馆藏珍贵档案文献,推出“从‘五一口号’到开国大典”大型档案文献专辑重磅发布。

团仔注意到其中12分钟珍藏版开国大典彩色影像,是首次公开,浙江共青团进行二度修复。

1949年10月1日,庆祝中华人民共和国中央人民政府成立典礼在天安门广场隆重举行。三十万军民参加这一旷世盛典。

         以俄罗斯联邦档案部门提供的开国大典彩色影片为基础,剪辑制作的开国大典影像档案,是目前公开的关于开国大典的时间最长、内容最完整的视频,真实还原了这一伟大的历史时刻。

70年过去了,此刻再回看依然热血澎湃,值得珍藏!


  • Format : Matroska
  • Format version : Version 4
  • File size : 1 014 MiB
  • Duration : 12 min 12 s
  • Overall bit rate : 11.6 Mb/s
  • Encoded date : UTC 2019-10-23 13:20:44
  • Writing application : mkvmerge v35.0.0 ('All The Love In The World') 64-bit
  • Writing library : libebml v1.3.9 + libmatroska v1.5.2
  • Video
  • ID : 1
  • Format : AVC
  • Format/Info : Advanced Video Codec
  • Format profile : High@L4
  • Format settings : CABAC / 4 Ref Frames
  • Format settings, CABAC : Yes
  • Format settings, Reference fra : 4 frames
  • Codec ID : V_MPEG4/ISO/AVC
  • Duration : 12 min 12 s
  • Bit rate : 4 854 kb/s
  • Width : 1 920 pixels
  • Height : 1 080 pixels
  • Display aspect ratio : 16:9
  • Frame rate mode : Constant
  • Frame rate : 24.000 FPS
  • Color space : YUV
  • Chroma subsampling : 4:2:0
  • Bit depth : 8 bits
  • Scan type : Progressive
  • Bits/(Pixel*Frame) : 0.098
  • Stream size : 424 MiB (42%)
  • Writing library : x264 core 148
  • Encoding settings : cabac=1 / ref=3 / deblock=1:0:0 / analyse=0x3:0x113 / me=hex / subme=7 / psy=1 / psy_rd=1.00:0.00 / mixed_ref=1 / me_range=16 / chroma_me=1 / trellis=1 / 8x8dct=1 / cqm=0 / deadzone=21,11 / fast_pskip=1 / chroma_qp_offset=-2 / threads=6 / lookahead_threads=1 / sliced_threads=0 / nr=0 / decimate=1 / interlaced=0 / bluray_compat=0 / constrained_intra=0 / bframes=3 / b_pyramid=2 / b_adapt=1 / b_bias=0 / direct=1 / weightb=1 / open_gop=0 / weightp=2 / keyint=250 / keyint_min=24 / scenecut=40 / intra_refresh=0 / rc_lookahead=40 / rc=crf / mbtree=1 / crf=18.0 / qcomp=0.60 / qpmin=0 / qpmax=69 / qpstep=4 / ip_ratio=1.40 / aq=1:1.00
  • Default : Yes
  • Forced : No
  • Audio #1
  • ID : 2
  • Format : PCM
  • Format settings : Little / Signed
  • Codec ID : A_PCM/INT/LIT
  • Duration : 12 min 12 s
  • Bit rate mode : Constant
  • Bit rate : 4 608 kb/s
  • Channel(s) : 6 channels
  • Sampling rate : 48.0 kHz
  • Frame rate : 32.001 FPS (1500 SPF)
  • Bit depth : 16 bits
  • Stream size : 402 MiB (40%)
  • Language : Chinese
  • Default : Yes
  • Forced : No
  • Audio #2
  • ID : 3
  • Format : DTS
  • Format/Info : Digital Theater Systems
  • Codec ID : A_DTS
  • Duration : 12 min 12 s
  • Bit rate mode : Constant
  • Bit rate : 1 509 kb/s
  • Channel(s) : 6 channels
  • Channel layout : C L R Ls Rs LFE
  • Sampling rate : 48.0 kHz
  • Frame rate : 93.750 FPS (512 SPF)
  • Bit depth : 16 bits
  • Compression mode : Lossy
  • Stream size : 132 MiB (13%)
  • Language : Chinese
  • Default : No
  • Forced : No
  • Audio #3
  • ID : 4
  • Format : AC-3
  • Format/Info : Audio Coding 3
  • Commercial name : Dolby Digital
  • Codec ID : A_AC3
  • Duration : 12 min 12 s
  • Bit rate mode : Constant
  • Bit rate : 640 kb/s
  • Channel(s) : 2 channels
  • Channel layout : L R
  • Sampling rate : 48.0 kHz
  • Frame rate : 31.250 FPS (1536 SPF)
  • Bit depth : 16 bits
  • Compression mode : Lossy
  • Stream size : 55.9 MiB (6%)
  • Language : Chinese
  • Service kind : Complete Main
  • Default : No
  • Forced : No

精彩剧照


真实影像:[开国大典][彩色修复版/国语中字][聆听毛主席当年使用九头鸟扩音机/向全国人民讲话真实声音] ...

真实影像:[开国大典][彩色修复版/国语中字][聆听毛主席当年使用九头鸟扩音机/向全国人民讲话真实声音] ...


蓝光高清网提示您  点击下方附件名称  马上开始下载

真实影像:[开国大典].彩色修复版.torrent (20.21 KB, 下载次数: 12)

加入蓝光高清网VIP会员  无限制下载本站所有资源---点此加入

资源下载、资源播放、字幕使用、无法下载等常见问题---点这里

回复

使用道具 举报

精彩评论9

357293034VIP会员 发表于 2019-11-7 20:03:41 | 显示全部楼层
看看。。。。。。。。。

加入蓝光高清网VIP会员  无限制下载本站所有资源---点此加入

资源下载、资源播放、字幕使用、无法下载等常见问题---点这里

回复

使用道具 举报

匿名  发表于 2019-11-9 19:57:28
好期待看看

加入蓝光高清网VIP会员  无限制下载本站所有资源---点此加入

资源下载、资源播放、字幕使用、无法下载等常见问题---点这里

回复

使用道具

mot2010 发表于 2019-11-9 20:21:59 | 显示全部楼层
6666666666

加入蓝光高清网VIP会员  无限制下载本站所有资源---点此加入

资源下载、资源播放、字幕使用、无法下载等常见问题---点这里

回复

使用道具 举报

康凯 发表于 2019-11-16 10:12:56 | 显示全部楼层
该资源需要您回复以后

加入蓝光高清网VIP会员  无限制下载本站所有资源---点此加入

资源下载、资源播放、字幕使用、无法下载等常见问题---点这里

回复

使用道具 举报

yauqt 发表于 2019-11-16 19:39:17 | 显示全部楼层
抢救出来的胶片

加入蓝光高清网VIP会员  无限制下载本站所有资源---点此加入

资源下载、资源播放、字幕使用、无法下载等常见问题---点这里

回复

使用道具 举报

chen5864 发表于 2019-11-18 15:40:45 | 显示全部楼层
谢谢提供精典的历史资料。

加入蓝光高清网VIP会员  无限制下载本站所有资源---点此加入

资源下载、资源播放、字幕使用、无法下载等常见问题---点这里

回复

使用道具 举报

幽幽高手 发表于 2019-11-29 08:51:09 | 显示全部楼层

好网站 希望越来越好

加入蓝光高清网VIP会员  无限制下载本站所有资源---点此加入

资源下载、资源播放、字幕使用、无法下载等常见问题---点这里

回复

使用道具 举报

WXCB 发表于 前天 13:56 | 显示全部楼层
000000000000

加入蓝光高清网VIP会员  无限制下载本站所有资源---点此加入

资源下载、资源播放、字幕使用、无法下载等常见问题---点这里

回复

使用道具 举报

gedq 发表于 前天 19:28 | 显示全部楼层
和俄罗斯的那部差不多

加入蓝光高清网VIP会员  无限制下载本站所有资源---点此加入

资源下载、资源播放、字幕使用、无法下载等常见问题---点这里

回复

使用道具 举报

懒得打字嘛,点击右侧快捷回复
高级模式
B Color Image Link Quote Code Smilies 上传

本版积分规则

关注0

粉丝0

帖子287

发布主题
最新电影 论坛
广告位
联系我们
点击这里联系客服

服务时间:
周一到周日8:00-23:30

  • 打开微信扫一扫
    关注公众号

  • 手机QQ扫一扫
    添加客服

Archiver手机版蓝光高清网 ( 渝ICP备18006373号-2 )|网站地图

Powered by Discuz! X3.4  © 2001-2013 Comsenz Inc.