[剧情] 壬生义士传 When.the.Last.Sword.Is.Drawn.2002.1080p.BluRay.x264-USURY 9.84GB

[复制链接]
蓝鸟VIP会员 永久VIP 发表于 2019-11-12 18:45:51 | 显示全部楼层 |阅读模式 打印 上一主题 下一主题

马上注册,轻松下载,海量资源,让你轻松玩转社区。

您需要 登录 才可以下载或查看,没有帐号?立即注册

x


译  名 壬生义士传 / Mibu gishi den / When the Last Sword Is Drawn
片  名 壬生義士伝
年  代 2003
产  地 日本
类  别 剧情
语  言 日语
上映日期 2003-01-18
IMDb评分  7.5/10 from 4495 users
IMDb链接  https://www.imdb.com/title/tt0359692
豆瓣评分 7.9/10 from 1703 users
豆瓣链接 https://movie.douban.com/subject/1428003/
片  长 137分钟
导  演 泷田洋二郎 Y?jir? Takita
编  剧 中岛丈博 Takehiro Nakajima
主  演 中井贵一 Kiichi Nakai
       佐藤浩市 K?ichi Sat?
       夏川结衣 Yui Natsukawa
       村田雄浩 Takehiro Murata
       中谷美纪 Miki Nakatani
       三宅裕司 Y?ji Miyake
       堀部圭亮 Keisuke Horibe
       伊藤淳史 Atsushi It?
       伊藤英明 Hideaki Ito
       加濑亮 Ryo Kase
       野村祐人 Eugene Nomura
       斋藤步 Ayumu Sait?
       堺雅人 Masato Sakai


标  签 日本 | 日本电影 | 武士 | 新選组 | 堺雅人 | 泷田洋二郎 | 中井贵一 | 中谷美纪

简  介  

  幕末时期,四维动荡。新撰组虽然网罗四方高手,但已有名无实。适值此时,来自盛冈南部藩的吉村贯一郎(中井贵一 饰)加入新撰组,其为人油滑悭吝,然非凡的剑术与缜密精细的头脑令土方岁三(野村祐人 饰)、斋藤一(佐藤浩市 饰)、冲田总司(堺雅人 饰)等名侍也不由得暗自钦佩。随着倒幕运动初露端倪,新撰组统归幕府直接领导,其血腥无情的作风更被世人称作“壬生之狼”。值此关隘,伊东甲子太郎(斋藤步 饰)等人不愿沦为幕府走狗,反出新撰组。最强大的武士部队分裂,与之相伴的必然是一场混杂着阴谋和杀戮的腥风血雨……
  本片根据浅田次郎的同名历史小说改编,荣获2004年第27届日本电影金像奖包括最佳影片、最佳男主角、最佳男配角等数个奖项。

获奖情况  

  第27届日本电影学院奖(2004)
  最佳影片
  最佳导演(提名) 泷田洋二郎
  最佳男主角 中井贵一
  最佳男配角 佐藤浩市
  最佳男配角(提名) 三宅裕司
  最佳女配角(提名) 中谷美纪
  最佳摄影(提名) 浜田毅
  最佳美术指导(提名) 部谷京子
  最佳照明(提名) 长田达也
  最佳录音(提名) 小野寺修
  最佳剪辑(提名) 富田伸子 / 富田功


该资源信息参数
  1. Video
  2. ID                                       : 1
  3. Format                                   : AVC
  4. Format/Info                              : Advanced Video Codec
  5. Format profile                           : High@L4
  6. Format settings                          : CABAC / 4 Ref Frames
  7. Format settings, CABAC                   : Yes
  8. Format settings, Reference frames        : 4 frames
  9. Codec ID                                 : V_MPEG4/ISO/AVC
  10. Duration                                 : 2 h 17 min
  11. Bit rate                                 : 8 729 kb/s
  12. Width                                    : 1 776 pixels
  13. Height                                   : 1 080 pixels
  14. Display aspect ratio                     : 16:10
  15. Frame rate mode                          : Constant
  16. Frame rate                               : 23.976 (24000/1001) FPS
  17. Color space                              : YUV
  18. Chroma subsampling                       : 4:2:0
  19. Bit depth                                : 8 bits
  20. Scan type                                : Progressive
  21. Bits/(Pixel*Frame)                       : 0.190
  22. Stream size                              : 8.38 GiB (85%)
  23. Writing library                          : x264 core 157 r2969 d4099dd
  24. Encoding settings                        : cabac=1 / ref=4 / deblock=1:-3:-3 / analyse=0x3:0x133 / me=umh / subme=9 / psy=1 / psy_rd=1.00:0.00 / mixed_ref=1 / me_range=16 / chroma_me=1 / trellis=2 / 8x8dct=1 / cqm=0 / deadzone=21,11 / fast_pskip=0 / chroma_qp_offset=-2 / threads=24 / lookahead_threads=2 / sliced_threads=0 / nr=0 / decimate=1 / interlaced=0 / bluray_compat=0 / constrained_intra=0 / bframes=3 / b_pyramid=2 / b_adapt=1 / b_bias=0 / direct=3 / weightb=1 / open_gop=0 / weightp=2 / keyint=240 / keyint_min=24 / scenecut=40 / intra_refresh=0 / rc_lookahead=50 / rc=2pass / mbtree=1 / bitrate=8729 / ratetol=1.0 / qcomp=0.60 / qpmin=0 / qpmax=69 / qpstep=4 / cplxblur=20.0 / qblur=0.5 / ip_ratio=1.40 / aq=1:1.00
  25. Language                                 : English
  26. Default                                  : Yes
  27. Forced                                   : No

  28. Audio
  29. ID                                       : 2
  30. Format                                   : DTS
  31. Format/Info                              : Digital Theater Systems
  32. Codec ID                                 : A_DTS
  33. Duration                                 : 2 h 17 min
  34. Bit rate mode                            : Constant
  35. Bit rate                                 : 1 509 kb/s
  36. Channel(s)                               : 6 channels
  37. Channel layout                           : C L R Ls Rs LFE
  38. Sampling rate                            : 48.0 kHz
  39. Frame rate                               : 93.750 FPS (512 SPF)
  40. Bit depth                                : 24 bits
  41. Compression mode                         : Lossy
  42. Stream size                              : 1.45 GiB (15%)
  43. Language                                 : Japanese
  44. Default                                  : Yes
  45. Forced                                   : No

  46. Text
  47. ID                                       : 3
  48. Format                                   : UTF-8
  49. Codec ID                                 : S_TEXT/UTF8
  50. Codec ID/Info                            : UTF-8 Plain Text
  51. Duration                                 : 2 h 13 min
  52. Bit rate                                 : 32 b/s
  53. Count of elements                        : 1184
  54. Stream size                              : 31.9 KiB (0%)
  55. Title                                    : English
  56. Language                                 : English
  57. Default                                  : Yes
  58. Forced                                   : Yes

  59. Menu
  60. 00:00:00.000                             : en:00:00:00.000
  61. 00:16:37.455                             : en:00:16:37.455
  62. 00:29:58.046                             : en:00:29:58.046
  63. 00:44:21.284                             : en:00:44:21.284
  64. 01:00:37.843                             : en:01:00:37.843
  65. 01:15:28.566                             : en:01:15:28.566
  66. 01:35:46.908                             : en:01:35:46.908
  67. 01:58:03.159                             : en:01:58:03.159
复制代码


精彩剧照




蓝光高清网提示您 点击下方附件名称 马上开始下载



温馨提示:
本站资源优先使用迅雷下载,迅雷会员下载,速度基本可以跑满宽带
如果遇到无资源或者版权问题无法下载,推荐使用115网盘离线下载(点击查看115网盘离线下载教程


  • 该资源需要您回复以后 刷新网页进行下载操作

  • 1、When.the.Last.Sword.Is.Drawn.2002.1080p.BluRay.x264-USURY.torrent 50KB 已下载 0 次

加入蓝光高清网VIP会员  无限制下载本站所有资源---点此加入

资源下载、资源播放、字幕使用、无法下载等常见问题---点这里

回复

使用道具 举报

精彩评论28

alau 发表于 2019-11-12 20:10:31 | 显示全部楼层
下载来看看

加入蓝光高清网VIP会员  无限制下载本站所有资源---点此加入

资源下载、资源播放、字幕使用、无法下载等常见问题---点这里

回复

使用道具 举报

安啦安啦 发表于 2019-11-12 20:20:41 | 显示全部楼层
收藏了  谢谢

加入蓝光高清网VIP会员  无限制下载本站所有资源---点此加入

资源下载、资源播放、字幕使用、无法下载等常见问题---点这里

回复

使用道具 举报

oscarlo 发表于 2019-11-12 22:08:13 | 显示全部楼层
这个帖子不回对不起自己!我想我是一天也不能离开蓝光高清网了

加入蓝光高清网VIP会员  无限制下载本站所有资源---点此加入

资源下载、资源播放、字幕使用、无法下载等常见问题---点这里

回复

使用道具 举报

魔缘乄劒圣 发表于 2019-11-13 06:05:53 | 显示全部楼层
终于找到了  谢谢分享

加入蓝光高清网VIP会员  无限制下载本站所有资源---点此加入

资源下载、资源播放、字幕使用、无法下载等常见问题---点这里

回复

使用道具 举报

qwe87813 发表于 2019-11-13 07:02:03 | 显示全部楼层
楼主发贴辛苦了,谢谢楼主分享!

加入蓝光高清网VIP会员  无限制下载本站所有资源---点此加入

资源下载、资源播放、字幕使用、无法下载等常见问题---点这里

回复

使用道具 举报

schenker_163mei 发表于 2019-11-13 07:22:18 | 显示全部楼层
终于找到了  谢谢分享

加入蓝光高清网VIP会员  无限制下载本站所有资源---点此加入

资源下载、资源播放、字幕使用、无法下载等常见问题---点这里

回复

使用道具 举报

第五季. 发表于 2019-11-13 07:42:58 | 显示全部楼层
不错,支持下楼主

加入蓝光高清网VIP会员  无限制下载本站所有资源---点此加入

资源下载、资源播放、字幕使用、无法下载等常见问题---点这里

回复

使用道具 举报

taihe666 发表于 2019-11-13 09:09:19 | 显示全部楼层
终于找到了  谢谢分享

加入蓝光高清网VIP会员  无限制下载本站所有资源---点此加入

资源下载、资源播放、字幕使用、无法下载等常见问题---点这里

回复

使用道具 举报

edaynet 发表于 2019-11-13 09:14:20 | 显示全部楼层
谢谢分享

加入蓝光高清网VIP会员  无限制下载本站所有资源---点此加入

资源下载、资源播放、字幕使用、无法下载等常见问题---点这里

回复

使用道具 举报

懒得打字嘛,点击右侧快捷回复
高级模式
B Color Image Link Quote Code Smilies 上传

本版积分规则

关注0

粉丝0

帖子71863

发布主题
最新电影 论坛
本期活动
联系我们
点击这里联系客服

服务时间:
周一到周日8:00-23:30

  • 打开微信扫一扫
    关注公众号

  • 手机QQ扫一扫
    添加客服

Archiver手机版蓝光高清网 ( 渝ICP备18006373号-2 )|网站地图

Powered by Discuz! X3.4  © 2001-2013 Comsenz Inc.