[剧情] 加布里埃尔与群山 Gabriel.and.the.Mountain.2017.1080p.BluRay.x264-BiPOLAR 9.83GB

[复制链接]
蓝鸟 发表于 2019-11-12 18:46:45 | 显示全部楼层 |阅读模式 打印 上一主题 下一主题
加布里埃尔与群山 Gabriel.and.the.Mountain.2017.1080p.BluRay.x264-BiPOLAR 9.83GB-1.png

译  名 加布里埃尔与群山 / Gabriel and the Mountain / 加百列的东非七十天(台)
片  名 Gabriel e a montanha
年  代 2017
产  地 巴西 / 法国
类  别 剧情
语  言 英语 / 葡萄牙语 / 斯瓦希里语 / 法语
上映日期 2017-05-21(戛纳电影节)
IMDb评分  7.0/10 from 821 users
IMDb链接  https://www.imdb.com/title/tt6805354
豆瓣评分 7.2/10 from 197 users
豆瓣链接 https://movie.douban.com/subject/26887112/
片  长 127分钟
导  演 费力比·巴博萨 Fellipe Barbosa
编  剧 费力比·巴博萨 Fellipe Barbosa / 卢卡斯·帕拉伊佐 Lucas Paraizo / 基里尔·米哈诺夫斯基 Kirill Mikhanovsky
主  演 卡罗琳·阿布拉斯 Caroline Abras
       Jo?o Pedro Zappa
       Alex Alembe
       Rashidi Athuman
       John Goodluck
       Luke Mpata
       Manuela Picq
       Rhosinah Sekeleti
       Leonard Siampala


标  签 巴西 | 公路 | 传记 | 非洲 | 法国 | 2017 | 戛纳 | 剧情

简  介  

  本片根据真实故事改编。高中毕业生加布里埃尔准备在进入大学前,环游世界一年。十个月后,他和女友一同到达了非洲的肯亚。在这里,他想探索更多,于是他只身穿越各个村落,结识了新的朋友,最终到达了他旅途的终点——马拉维的姆兰杰山脉。

获奖情况  

  第70届戛纳电影节(2017)
  影评人周单元  影评人周单元大奖 (提名) 费力比·巴博萨
  France 4 Visionary Award 费力比·巴博萨


该资源信息参数
  1. Video
  2. ID                                       : 1
  3. Format                                   : AVC
  4. Format/Info                              : Advanced Video Codec
  5. Format profile                           : High@L4
  6. Format settings                          : CABAC / 5 Ref Frames
  7. Format settings, CABAC                   : Yes
  8. Format settings, Reference frames        : 5 frames
  9. Codec ID                                 : V_MPEG4/ISO/AVC
  10. Duration                                 : 2 h 5 min
  11. Bit rate                                 : 9 666 kb/s
  12. Width                                    : 1 920 pixels
  13. Height                                   : 808 pixels
  14. Display aspect ratio                     : 2.40:1
  15. Frame rate mode                          : Constant
  16. Frame rate                               : 25.000 FPS
  17. Color space                              : YUV
  18. Chroma subsampling                       : 4:2:0
  19. Bit depth                                : 8 bits
  20. Scan type                                : Progressive
  21. Bits/(Pixel*Frame)                       : 0.249
  22. Stream size                              : 8.50 GiB (86%)
  23. Writing library                          : x264 core 157 r2969 d4099dd
  24. Encoding settings                        : cabac=1 / ref=5 / deblock=1:-3:-3 / analyse=0x3:0x133 / me=umh / subme=9 / psy=1 / psy_rd=1.00:0.00 / mixed_ref=1 / me_range=16 / chroma_me=1 / trellis=2 / 8x8dct=1 / cqm=0 / deadzone=21,11 / fast_pskip=0 / chroma_qp_offset=-2 / threads=18 / lookahead_threads=1 / sliced_threads=0 / nr=0 / decimate=1 / interlaced=0 / bluray_compat=0 / constrained_intra=0 / bframes=3 / b_pyramid=2 / b_adapt=1 / b_bias=0 / direct=3 / weightb=1 / open_gop=0 / weightp=2 / keyint=250 / keyint_min=25 / scenecut=40 / intra_refresh=0 / rc_lookahead=50 / rc=2pass / mbtree=1 / bitrate=9666 / ratetol=1.0 / qcomp=0.60 / qpmin=0 / qpmax=69 / qpstep=4 / cplxblur=20.0 / qblur=0.5 / ip_ratio=1.40 / aq=1:1.00
  25. Language                                 : English
  26. Default                                  : Yes
  27. Forced                                   : No

  28. Audio
  29. ID                                       : 2
  30. Format                                   : DTS
  31. Format/Info                              : Digital Theater Systems
  32. Codec ID                                 : A_DTS
  33. Duration                                 : 2 h 5 min
  34. Bit rate mode                            : Constant
  35. Bit rate                                 : 1 509 kb/s
  36. Channel(s)                               : 6 channels
  37. Channel layout                           : C L R Ls Rs LFE
  38. Sampling rate                            : 48.0 kHz
  39. Frame rate                               : 93.750 FPS (512 SPF)
  40. Bit depth                                : 24 bits
  41. Compression mode                         : Lossy
  42. Stream size                              : 1.33 GiB (14%)
  43. Language                                 : English
  44. Default                                  : Yes
  45. Forced                                   : No

  46. Text #1
  47. ID                                       : 3
  48. Format                                   : UTF-8
  49. Codec ID                                 : S_TEXT/UTF8
  50. Codec ID/Info                            : UTF-8 Plain Text
  51. Duration                                 : 2 h 5 min
  52. Bit rate                                 : 15 b/s
  53. Count of elements                        : 532
  54. Stream size                              : 14.5 KiB (0%)
  55. Title                                    : English
  56. Language                                 : English
  57. Default                                  : Yes
  58. Forced                                   : Yes

  59. Text #2
  60. ID                                       : 4
  61. Format                                   : UTF-8
  62. Codec ID                                 : S_TEXT/UTF8
  63. Codec ID/Info                            : UTF-8 Plain Text
  64. Duration                                 : 2 h 0 min
  65. Bit rate                                 : 56 b/s
  66. Count of elements                        : 1770
  67. Stream size                              : 50.4 KiB (0%)
  68. Title                                    : English
  69. Language                                 : English
  70. Default                                  : No
  71. Forced                                   : No

  72. Text #3
  73. ID                                       : 5
  74. Format                                   : UTF-8
  75. Codec ID                                 : S_TEXT/UTF8
  76. Codec ID/Info                            : UTF-8 Plain Text
  77. Duration                                 : 2 h 5 min
  78. Bit rate                                 : 64 b/s
  79. Count of elements                        : 2006
  80. Stream size                              : 58.8 KiB (0%)
  81. Title                                    : English SDH
  82. Language                                 : English
  83. Default                                  : No
  84. Forced                                   : No

  85. Text #4
  86. ID                                       : 6
  87. Format                                   : UTF-8
  88. Codec ID                                 : S_TEXT/UTF8
  89. Codec ID/Info                            : UTF-8 Plain Text
  90. Duration                                 : 2 h 0 min
  91. Bit rate                                 : 50 b/s
  92. Count of elements                        : 1441
  93. Stream size                              : 44.8 KiB (0%)
  94. Title                                    : French
  95. Language                                 : French
  96. Default                                  : No
  97. Forced                                   : No

  98. Menu
  99. 00:00:00.000                             : en:00:00:00.000
  100. 00:11:54.560                             : en:00:11:54.560
  101. 00:21:53.200                             : en:00:21:53.200
  102. 00:32:19.440                             : en:00:32:19.440
  103. 00:44:39.240                             : en:00:44:39.240
  104. 00:55:01.000                             : en:00:55:01.000
  105. 01:04:52.920                             : en:01:04:52.920
  106. 01:14:47.960                             : en:01:14:47.960
  107. 01:25:34.920                             : en:01:25:34.920
  108. 01:34:53.160                             : en:01:34:53.160
  109. 01:46:10.120                             : en:01:46:10.120
  110. 01:56:03.800                             : en:01:56:03.800
复制代码


精彩剧照

加布里埃尔与群山 Gabriel.and.the.Mountain.2017.1080p.BluRay.x264-BiPOLAR 9.83GB-2.png


蓝光高清网提示您 点击下方附件名称 马上开始下载

Gabriel.and.the.Mountain.2017.1080p.BluRay.x264-BiPOLAR.torrent 
         (49.91 KB    阅读权限: 0)
加入蓝光高清网VIP会员  无限制下载本站所有资源---点这里

资源下载、资源播放、字幕使用、无法下载等常见问题---点这里
回复

使用道具 举报

精彩评论31

lh7872 发表于 2019-11-12 19:39:56 | 显示全部楼层
楼主发贴辛苦了,谢谢楼主分享!
回复

使用道具 举报

feiyang324 发表于 2019-11-12 19:45:08 | 显示全部楼层
终于找到了  谢谢分享
回复

使用道具 举报

jiangzheng 发表于 2019-11-12 19:55:19 | 显示全部楼层
收藏了  谢谢
回复

使用道具 举报

ywq21 发表于 2019-11-12 20:51:47 | 显示全部楼层
谢谢楼主分享
回复

使用道具 举报

vovo123 发表于 2019-11-12 22:03:09 | 显示全部楼层
不错,支持下楼主
回复

使用道具 举报

qilizi 发表于 2019-11-12 22:28:42 | 显示全部楼层
真是 收益 匪浅
回复

使用道具 举报

_shaman_ 发表于 2019-11-13 06:21:05 | 显示全部楼层
支持一下
回复

使用道具 举报

zpgzs 发表于 2019-11-13 06:26:06 | 显示全部楼层
好资源 收藏了 谢谢分享
回复

使用道具 举报

智联经纬 发表于 2019-11-13 06:31:15 | 显示全部楼层
哈哈 谢谢 谢谢
回复

使用道具 举报

您需要登录后才可以回帖 登录 | 立即注册

本版积分规则

关注0

粉丝1

帖子86492

发布主题
最新电影 论坛
本期活动
联系我们
点击这里联系客服

服务时间:
周一到周日8:00-23:30

  • 打开微信扫一扫
    关注公众号

  • 手机QQ扫一扫
    添加客服

手机版蓝光高清网 |网站地图

Powered by Discuz! X3.4 Licensed  © 2001-2013 Comsenz Inc.