游客您好
第三方账号登陆
  • 点击联系客服

    在线时间:9:00-18:00

    客服QQ

    1371333023

    电子邮件

    lanniao@1080pro.net
  • 烧友之家APP

    随时掌握烧友资讯

  • 扫描二维码

    关注微信公众号

推荐阅读
蓝鸟
未知星球 | 未知职业
  • 关注0
  • 粉丝2
  • 帖子93857
精选帖子
开启左侧

[动作] 天使陷落/奥林匹斯的陷落3 Angel.Has.Fallen.2019.1080p.BluRay.x264.DTS-HD.MA.7.1-FGT 10.23GB

[复制链接]
蓝鸟 发表于 2019-11-17 08:15:40 | 显示全部楼层 |阅读模式 打印 上一主题 下一主题

加入蓝光高清网,轻松下载最新4k资源

您需要 登录 才可以下载或查看,没有帐号?立即注册

x

天使陷落/奥林匹斯的陷落3 Angel.Has.Fallen.2019.1080p.BluRay.x264.DTS-HD.MA.7.1-FGT 10.23GB ...

天使陷落/奥林匹斯的陷落3 Angel.Has.Fallen.2019.1080p.BluRay.x264.DTS-HD.MA.7.1-FGT 10.23GB ...


译  名 天使陷落 / 奥林匹斯的陷落3 / 白宫沦陷3﹕天使沦陷(港) / 空军一号陷落
片  名 Angel Has Fallen
年  代 2019
产  地 美国
类  别 动作 / 犯罪
语  言 英语
上映日期 2019-08-23(美国)
IMDb评分  6.7/10 from 18202 users
IMDb链接  https://www.imdb.com/title/tt6189022
豆瓣评分 6.7/10 from 984 users
豆瓣链接 https://movie.douban.com/subject/26900949/
片  长 121分钟
导  演 里克·罗曼·沃夫 Ric Roman Waugh
编  剧 凯特琳·贝内迪克特 Katrin Benedikt / 罗伯特·马克·卡门 Robert Mark Kamen / 克赖顿·罗森博格 Creighton Rothenberger
主  演 杰拉德·巴特勒 Gerard Butler
       摩根·弗里曼 Morgan Freeman
       派珀·佩拉博 Piper Perabo
       兰斯·莱迪克 Lance Reddick
       贾达·萍克·史密斯 Jada Pinkett Smith
       蒂姆·布雷克·尼尔森 Tim Blake Nelson
       尼克·诺特 Nick Nolte
       克里斯·勃朗宁 Chris Browning
       丹尼·赫斯顿 Danny Huston
       迈克尔·兰德斯 Michael Landes
       约瑟夫·米尔森 Joseph Millson
       索菲娅·德尔·皮佐 Sophia Del Pizzo
       马克·阿诺德 Mark Arnold
       萨皮尔·阿苏拉 Sapir Azulay
       费雷德里克·施密特 Frederick Schmidt
       马克·史密斯 Mark Rhino Smith
       布伦丹·凯利 Brendan Kelly
       凯瑞·莎勒 Kerry Shale
       奥利·普费弗 Ori Pfeffer
       布莱恩·拉金 Bryan Larkin
       科林·斯廷顿 Colin Stinton
       阿塔纳斯·斯雷布雷夫 Atanas Srebrev
       贾格·帕特尔 Jag Patel
       乔蕾·科斯 Joelle Koissi
       黛博拉·洛克 Deborah Rock
       丹尼尔·厄根 Daniel Eghan
       伯纳多·桑托斯 Bernardo Santos
       内森·库珀 Nathan Cooper
       泰·赫尔利 Ty Hurley
       保罗·布莱克维尔 Paul Blackwell
       米迦勒·博迪 Michael Bodie
       劳拉·马塔沙 Laura Matassa
       凯文·马塔迪恩 Kevin Matadeen
       格雷格·奥维斯 Greg Orvis
       马丁·贝尔曼 Martin Behrman
       乔治娅·古德曼 Georgia Goodman


标  签 动作 | 美国 | 陷落 | 2019 | 反恐 | 犯罪 | 战争 | 特工

简  介  

  美国总统(摩根·弗里曼饰)在遭遇无人机恐怖袭击后身受重伤陷入昏迷,随行人员在多次爆炸中全军覆没,唯一的幸存者——总统多年贴身保镖迈克·班宁(杰拉德·巴特勒饰)却成最大嫌疑犯,被FBI控告企图暗杀总统。班宁必须给自己洗刷冤屈,同时阻止真正的刺杀总统计划,在多方势力围追堵截下,走投无路的他只能寻求一名神秘人的保护……曾经的英雄保镖如今变为通缉犯,班宁将如何脱离险境、保护总统,破解背后的阴谋?


该资源信息参数
  1. Video
  2. ID                                       : 1
  3. Format                                   : AVC
  4. Format/Info                              : Advanced Video Codec
  5. Format profile                           : High@L4
  6. Format settings                          : CABAC / 5 Ref Frames
  7. Format settings, CABAC                   : Yes
  8. Format settings, Reference frames        : 5 frames
  9. Codec ID                                 : V_MPEG4/ISO/AVC
  10. Duration                                 : 2 h 1 min
  11. Bit rate                                 : 8 401 kb/s
  12. Width                                    : 1 920 pixels
  13. Height                                   : 808 pixels
  14. Display aspect ratio                     : 2.40:1
  15. Frame rate mode                          : Constant
  16. Frame rate                               : 23.976 (24000/1001) FPS
  17. Color space                              : YUV
  18. Chroma subsampling                       : 4:2:0
  19. Bit depth                                : 8 bits
  20. Scan type                                : Progressive
  21. Bits/(Pixel*Frame)                       : 0.226
  22. Stream size                              : 7.09 GiB (69%)
  23. Title                                    : Angel.Has.Fallen.2019.1080p.BluRay.x264.DTS-HD.MA.7.1-FGT
  24. Writing library                          : x264 core 157 r2969 d4099dd
  25. Encoding settings                        : cabac=1 / ref=5 / deblock=1:0:0 / analyse=0x3:0x113 / me=umh / subme=8 / psy=1 / psy_rd=1.00:0.00 / mixed_ref=1 / me_range=16 / chroma_me=1 / trellis=1 / 8x8dct=1 / cqm=0 / deadzone=21,11 / fast_pskip=1 / chroma_qp_offset=-2 / threads=16 / lookahead_threads=2 / sliced_threads=0 / nr=0 / decimate=1 / interlaced=0 / bluray_compat=0 / constrained_intra=0 / bframes=3 / b_pyramid=2 / b_adapt=2 / b_bias=0 / direct=3 / weightb=1 / open_gop=0 / weightp=2 / keyint=240 / keyint_min=23 / scenecut=40 / intra_refresh=0 / rc_lookahead=50 / rc=2pass / mbtree=1 / bitrate=8401 / ratetol=1.0 / qcomp=0.60 / qpmin=0 / qpmax=69 / qpstep=4 / cplxblur=20.0 / qblur=0.5 / ip_ratio=1.40 / aq=1:1.00
  26. Language                                 : English
  27. Default                                  : Yes
  28. Forced                                   : No

  29. Audio
  30. ID                                       : 2
  31. Format                                   : DTS XLL
  32. Format/Info                              : Digital Theater Systems
  33. Commercial name                          : DTS-HD Master Audio
  34. Codec ID                                 : A_DTS
  35. Duration                                 : 2 h 1 min
  36. Bit rate mode                            : Variable
  37. Bit rate                                 : 3 653 kb/s
  38. Channel(s)                               : 8 channels
  39. Channel layout                           : C L R LFE Lb Rb Lss Rss
  40. Sampling rate                            : 48.0 kHz
  41. Frame rate                               : 93.750 FPS (512 SPF)
  42. Bit depth                                : 24 bits
  43. Compression mode                         : Lossless
  44. Stream size                              : 3.09 GiB (30%)
  45. Title                                    : Angel.Has.Fallen.2019.1080p.BluRay.x264.DTS-HD.MA.7.1-FGT
  46. Language                                 : English
  47. Default                                  : Yes
  48. Forced                                   : No

  49. Text #1
  50. ID                                       : 3
  51. Format                                   : UTF-8
  52. Codec ID                                 : S_TEXT/UTF8
  53. Codec ID/Info                            : UTF-8 Plain Text
  54. Duration                                 : 1 h 51 min
  55. Bit rate                                 : 58 b/s
  56. Count of elements                        : 1452
  57. Stream size                              : 47.5 KiB (0%)
  58. Title                                    : English-SRT
  59. Language                                 : English
  60. Default                                  : Yes
  61. Forced                                   : No

  62. Text #2
  63. ID                                       : 4
  64. Format                                   : PGS
  65. Muxing mode                              : zlib
  66. Codec ID                                 : S_HDMV/PGS
  67. Codec ID/Info                            : Picture based subtitle format used on BDs/HD-DVDs
  68. Duration                                 : 1 h 52 min
  69. Bit rate                                 : 44.7 kb/s
  70. Count of elements                        : 3092
  71. Stream size                              : 36.1 MiB (0%)
  72. Title                                    : English-PGS
  73. Language                                 : English
  74. Default                                  : No
  75. Forced                                   : No

  76. Text #3
  77. ID                                       : 5
  78. Format                                   : PGS
  79. Muxing mode                              : zlib
  80. Codec ID                                 : S_HDMV/PGS
  81. Codec ID/Info                            : Picture based subtitle format used on BDs/HD-DVDs
  82. Duration                                 : 1 h 50 min
  83. Bit rate                                 : 47.4 kb/s
  84. Count of elements                        : 3064
  85. Stream size                              : 37.7 MiB (0%)
  86. Title                                    : French-PGS
  87. Language                                 : French
  88. Default                                  : No
  89. Forced                                   : No

  90. Text #4
  91. ID                                       : 6
  92. Format                                   : PGS
  93. Muxing mode                              : zlib
  94. Codec ID                                 : S_HDMV/PGS
  95. Codec ID/Info                            : Picture based subtitle format used on BDs/HD-DVDs
  96. Duration                                 : 1 h 51 min
  97. Bit rate                                 : 34.1 kb/s
  98. Count of elements                        : 2716
  99. Stream size                              : 27.2 MiB (0%)
  100. Title                                    : Spanish-PGS
  101. Language                                 : Spanish
  102. Default                                  : No
  103. Forced                                   : No

  104. Menu
  105. 00:00:00.000                             : en:Chapter 01
  106. 00:06:48.950                             : en:Chapter 02
  107. 00:15:08.157                             : en:Chapter 03
  108. 00:23:13.809                             : en:Chapter 04
  109. 00:28:35.714                             : en:Chapter 05
  110. 00:39:39.627                             : en:Chapter 06
  111. 00:45:33.564                             : en:Chapter 07
  112. 00:50:56.053                             : en:Chapter 08
  113. 00:59:23.393                             : en:Chapter 09
  114. 01:06:50.882                             : en:Chapter 10
  115. 01:16:25.873                             : en:Chapter 11
  116. 01:24:11.046                             : en:Chapter 12
  117. 01:30:14.409                             : en:Chapter 13
  118. 01:37:42.065                             : en:Chapter 14
  119. 01:44:54.538                             : en:Chapter 15
  120. 01:51:08.120                             : en:Chapter 16
复制代码


精彩剧照

天使陷落/奥林匹斯的陷落3 Angel.Has.Fallen.2019.1080p.BluRay.x264.DTS-HD.MA.7.1-FGT 10.23GB-1.png

天使陷落/奥林匹斯的陷落3 Angel.Has.Fallen.2019.1080p.BluRay.x264.DTS-HD.MA.7.1-FGT 10.23GB ...

天使陷落/奥林匹斯的陷落3 Angel.Has.Fallen.2019.1080p.BluRay.x264.DTS-HD.MA.7.1-FGT 10.23GB ...

天使陷落/奥林匹斯的陷落3 Angel.Has.Fallen.2019.1080p.BluRay.x264.DTS-HD.MA.7.1-FGT 10.23GB ...

天使陷落/奥林匹斯的陷落3 Angel.Has.Fallen.2019.1080p.BluRay.x264.DTS-HD.MA.7.1-FGT 10.23GB ...



蓝光高清网提示您 点击下方附件名称 马上开始下载

Angel.Has.Fallen.2019.1080p.BluRay.x264.DTS-HD.MA.7.1-FGT.torrent (文件大小:51.71 KB)
加入蓝光高清网VIP会员  无限制下载本站所有资源---点这里

资源下载、资源播放、字幕使用、无法下载等常见问题---点这里
回复

使用道具 举报

精彩评论44

逆占 发表于 2019-11-18 18:47:23 | 显示全部楼层
#在这里快速回复#回帖后跳转到最后一页
回复 支持 反对

使用道具 举报

笨小孩 发表于 2019-11-23 01:25:11 | 显示全部楼层
相当不错,感谢无私分享精神!
回复 支持 反对

使用道具 举报

笨小孩 发表于 2019-11-23 01:25:38 | 显示全部楼层
#在这里快速回复#相当不错,感谢无私分享精神!
回复 支持 反对

使用道具 举报

匿名  发表于 2019-11-24 13:12:58
感谢无私分享精神!
回复 支持 反对

使用道具

匿名  发表于 2019-11-24 13:13:21
感谢无私分享精神!
回复 支持 反对

使用道具

匿名  发表于 2019-11-24 13:13:26
感谢无私分享精神!
回复 支持 反对

使用道具

匿名  发表于 2019-11-24 13:13:39
感谢无私分享精神!
回复 支持 反对

使用道具

朝花夕拾_IHJR 发表于 2019-11-26 07:02:20 | 显示全部楼层

感谢楼主的无私分享!
回复 支持 反对

使用道具 举报

朝花夕拾_IHJR 发表于 2019-11-26 07:07:52 | 显示全部楼层
楼主发贴辛苦了,谢谢楼主分享!
回复 支持 反对

使用道具 举报

您需要登录后才可以回帖 登录 | 立即注册

本版积分规则

烧友之家(蓝光高清网)本站内容部分由用户自主分享和转载自互联网,转载目的在于传递更多信息,并不代表本网赞同其观点和对其真实性负责。 如有侵权、违反国家法律政策行为,请联系我们,我们会第一时间及时清除和处理!
蓝光高清网 综合资讯平台
关注我们
  • 官方微信公众号
  • 扫码下载官方APP

X3.4 Licensed© 2001-2013 蓝光高清网 烧友之家APP |网站地图