[剧情] 酷刑阴谋 Beatrice.Cenci.1969.1080p.BluRay.x264-GHOULS 6.57GB

[复制链接]
蓝鸟VIP会员 永久VIP 发表于 2019-11-17 08:33:11 | 显示全部楼层 |阅读模式 打印 上一主题 下一主题

马上注册,轻松下载,海量资源,让你轻松玩转社区。

您需要 登录 才可以下载或查看,没有帐号?立即注册

x


译  名 酷刑阴谋 / Beatrice Cenci
片  名 The Conspiracy of Torture
年  代 1969
产  地 意大利
类  别 剧情 / 传记 / 历史
语  言 意大利语
上映日期 1969-11-14(意大利)
IMDb评分  6.6/10 from 541 users
IMDb链接  https://www.imdb.com/title/tt0064073
豆瓣评分 0/10 from 0 users
豆瓣链接 https://movie.douban.com/subject/5056628/
片  长 99 分钟
导  演 卢西奥·弗尔兹 Lucio Fulci
编  剧 卢西奥·弗尔兹 Lucio Fulci
主  演 Tomas Milian
       Adrienne Larussa
       Georges Wilson


标  签 意大利 | 意大利电影 | 剧情 | 1969 | 美女 | LucioFulci | 1960s | 恐怖

简  介  

  一位美女被遭鬼父强暴而拼死抵抗而把父亲害死,自己不愿嫁祸他人勇于承担罪行的事
  A young Italian noblewoman plots with her lover and her family to murder her abusive father leading to an uproar in the community and t he Roman Catholic church set in 16th Century Italy.


该资源信息参数
  1. Video
  2. ID                                       : 1
  3. Format                                   : AVC
  4. Format/Info                              : Advanced Video Codec
  5. Format profile                           : High@L4
  6. Format settings                          : CABAC / 4 Ref Frames
  7. Format settings, CABAC                   : Yes
  8. Format settings, Reference frames        : 4 frames
  9. Codec ID                                 : V_MPEG4/ISO/AVC
  10. Duration                                 : 1 h 33 min
  11. Bit rate                                 : 8 651 kb/s
  12. Width                                    : 1 920 pixels
  13. Height                                   : 1 040 pixels
  14. Display aspect ratio                     : 1.85:1
  15. Frame rate mode                          : Constant
  16. Frame rate                               : 23.976 (24000/1001) FPS
  17. Color space                              : YUV
  18. Chroma subsampling                       : 4:2:0
  19. Bit depth                                : 8 bits
  20. Scan type                                : Progressive
  21. Bits/(Pixel*Frame)                       : 0.181
  22. Stream size                              : 5.66 GiB (86%)
  23. Writing library                          : x264 core 158 r2988 7817004
  24. Encoding settings                        : cabac=1 / ref=4 / deblock=1:-3:-3 / analyse=0x3:0x133 / me=umh / subme=9 / psy=1 / psy_rd=1.00:0.00 / mixed_ref=1 / me_range=24 / chroma_me=1 / trellis=1 / 8x8dct=1 / cqm=0 / deadzone=21,11 / fast_pskip=0 / chroma_qp_offset=-2 / threads=24 / lookahead_threads=4 / sliced_threads=0 / nr=0 / decimate=1 / interlaced=0 / bluray_compat=0 / constrained_intra=0 / bframes=8 / b_pyramid=2 / b_adapt=2 / b_bias=0 / direct=3 / weightb=1 / open_gop=0 / weightp=2 / keyint=250 / keyint_min=23 / scenecut=40 / intra_refresh=0 / rc_lookahead=60 / rc=2pass / mbtree=1 / bitrate=8651 / ratetol=1.0 / qcomp=0.60 / qpmin=0 / qpmax=69 / qpstep=4 / cplxblur=20.0 / qblur=0.5 / vbv_maxrate=62500 / vbv_bufsize=78125 / nal_hrd=none / filler=0 / ip_ratio=1.40 / aq=1:1.00
  25. Default                                  : Yes
  26. Forced                                   : No

  27. Audio #1
  28. ID                                       : 2
  29. Format                                   : FLAC
  30. Format/Info                              : Free Lossless Audio Codec
  31. Codec ID                                 : A_FLAC
  32. Duration                                 : 1 h 33 min
  33. Bit rate mode                            : Variable
  34. Bit rate                                 : 677 kb/s
  35. Channel(s)                               : 2 channels
  36. Channel layout                           : L R
  37. Sampling rate                            : 48.0 kHz
  38. Frame rate                               : 10.417 FPS (4608 SPF)
  39. Bit depth                                : 24 bits
  40. Compression mode                         : Lossless
  41. Stream size                              : 454 MiB (7%)
  42. Writing library                          : Lavf58.29.100
  43. Language                                 : English
  44. Default                                  : No
  45. Forced                                   : No

  46. Audio #2
  47. ID                                       : 3
  48. Format                                   : FLAC
  49. Format/Info                              : Free Lossless Audio Codec
  50. Codec ID                                 : A_FLAC
  51. Duration                                 : 1 h 33 min
  52. Bit rate mode                            : Variable
  53. Bit rate                                 : 690 kb/s
  54. Channel(s)                               : 2 channels
  55. Channel layout                           : L R
  56. Sampling rate                            : 48.0 kHz
  57. Frame rate                               : 10.417 FPS (4608 SPF)
  58. Bit depth                                : 24 bits
  59. Compression mode                         : Lossless
  60. Stream size                              : 462 MiB (7%)
  61. Writing library                          : Lavf58.29.100
  62. Language                                 : Italian
  63. Default                                  : Yes
  64. Forced                                   : No

  65. Text
  66. ID                                       : 4
  67. Format                                   : UTF-8
  68. Codec ID                                 : S_TEXT/UTF8
  69. Codec ID/Info                            : UTF-8 Plain Text
  70. Duration                                 : 1 h 33 min
  71. Bit rate                                 : 41 b/s
  72. Count of elements                        : 708
  73. Stream size                              : 28.1 KiB (0%)
  74. Language                                 : English
  75. Default                                  : Yes
  76. Forced                                   : No

  77. Menu
  78. 00:00:00.000                             : en:Chapter 01
  79. 00:05:34.167                             : en:Chapter 02
  80. 00:13:44.449                             : en:Chapter 03
  81. 00:22:31.934                             : en:Chapter 04
  82. 00:32:09.302                             : en:Chapter 05
  83. 00:42:24.709                             : en:Chapter 06
  84. 00:51:39.680                             : en:Chapter 07
  85. 00:59:52.547                             : en:Chapter 08
  86. 01:07:51.901                             : en:Chapter 09
  87. 01:15:59.889                             : en:Chapter 10
  88. 01:23:05.022                             : en:Chapter 11
  89. 01:29:09.970                             : en:Chapter 12
复制代码


精彩剧照




蓝光高清网提示您 点击下方附件名称 马上开始下载



温馨提示:
本站资源优先使用迅雷下载,迅雷会员下载,速度基本可以跑满宽带
如果遇到无资源或者版权问题无法下载,推荐使用115网盘离线下载(点击查看115网盘离线下载教程


  • 该资源需要您回复以后 刷新网页进行下载操作

  • 1、Beatrice.Cenci.1969.1080p.BluRay.x264-GHOULS.torrent 34KB 已下载 0 次

加入蓝光高清网VIP会员  无限制下载本站所有资源---点此加入

资源下载、资源播放、字幕使用、无法下载等常见问题---点这里

回复

使用道具 举报

精彩评论1

向上人生路 发表于 2019-11-19 10:56:07 | 显示全部楼层
感谢楼主分享

加入蓝光高清网VIP会员  无限制下载本站所有资源---点此加入

资源下载、资源播放、字幕使用、无法下载等常见问题---点这里

回复

使用道具 举报

懒得打字嘛,点击右侧快捷回复
高级模式
B Color Image Link Quote Code Smilies 上传

本版积分规则

关注0

粉丝0

帖子69462

发布主题
最新电影 论坛
本期活动
联系我们
点击这里联系客服

服务时间:
周一到周日8:00-23:30

  • 打开微信扫一扫
    关注公众号

  • 手机QQ扫一扫
    添加客服

Archiver手机版蓝光高清网 ( 渝ICP备18006373号-2 )|网站地图

Powered by Discuz! X3.4  © 2001-2013 Comsenz Inc.