[剧情] 詹姆斯狄恩并发症 Come.Back.to.the.5.and.Dime.Jimmy.Dean.Jimmy.Dean.1982.iNTERNAL.1080p.BluRay.x264-EiDER 20.35GB

[复制链接]
蓝鸟VIP会员 永久VIP 发表于 2019-11-17 08:34:43 | 显示全部楼层 |阅读模式 打印 上一主题 下一主题

马上注册,轻松下载,海量资源,让你轻松玩转社区。

您需要 登录 才可以下载或查看,没有帐号?立即注册

x


译  名 詹姆斯狄恩并发症 / Come Back to the 5 & Dime, Jimmy Dean, Jimmy Dean
片  名 Come Back to the Five and Dime, Jimmy Dean, Jimmy Dean
年  代 1982
产  地 美国
类  别 剧情 / 喜剧
语  言 英语
上映日期 1982-11-12
IMDb评分  7.5/10 from 3661 users
IMDb链接  http://www.imdb.com/title/tt0083745
豆瓣评分 0/10 from 0 users
豆瓣链接 https://movie.douban.com/subject/1293080/
片  长 109 分钟
导  演 Robert Altman
编  剧 Ed Graczyk
主  演 Sandy Dennis
      Cher
      Karen Black
      Sudie Bond
      Kathy Bates


标  签 美国 | RobertAltman | 罗伯特·奥尔特曼 | 喜剧 | Robert_Altman | Altman | 1980s | 美国电影

简  介  

  暂无相关剧情介绍



该资源信息参数
  1. Video
  2. ID                                       : 1
  3. Format                                   : AVC
  4. Format/Info                              : Advanced Video Codec
  5. Format profile                           : High@L4
  6. Format settings                          : CABAC / 4 Ref Frames
  7. Format settings, CABAC                   : Yes
  8. Format settings, Reference frames        : 4 frames
  9. Codec ID                                 : V_MPEG4/ISO/AVC
  10. Duration                                 : 1 h 49 min
  11. Bit rate                                 : 21.8 Mb/s
  12. Width                                    : 1 920 pixels
  13. Height                                   : 1 040 pixels
  14. Display aspect ratio                     : 1.85:1
  15. Frame rate mode                          : Constant
  16. Frame rate                               : 23.976 (24000/1001) FPS
  17. Color space                              : YUV
  18. Chroma subsampling                       : 4:2:0
  19. Bit depth                                : 8 bits
  20. Scan type                                : Progressive
  21. Bits/(Pixel*Frame)                       : 0.455
  22. Stream size                              : 16.7 GiB (82%)
  23. Writing library                          : x264 core 158 r2988 7817004
  24. Encoding settings                        : cabac=1 / ref=4 / deblock=1:-3:-3 / analyse=0x3:0x113 / me=umh / subme=8 / psy=1 / psy_rd=1.00:0.00 / mixed_ref=1 / me_range=32 / chroma_me=1 / trellis=2 / 8x8dct=1 / cqm=0 / deadzone=21,11 / fast_pskip=1 / chroma_qp_offset=-2 / threads=18 / lookahead_threads=3 / sliced_threads=0 / nr=0 / decimate=1 / interlaced=0 / bluray_compat=0 / constrained_intra=0 / bframes=3 / b_pyramid=2 / b_adapt=2 / b_bias=0 / direct=3 / weightb=1 / open_gop=0 / weightp=2 / keyint=240 / keyint_min=24 / scenecut=40 / intra_refresh=0 / rc_lookahead=50 / rc=crf / mbtree=1 / crf=18.0 / qcomp=0.60 / qpmin=0 / qpmax=69 / qpstep=4 / ip_ratio=1.40 / aq=3:0.80
  25. Language                                 : English
  26. Default                                  : Yes
  27. Forced                                   : No

  28. Audio #1
  29. ID                                       : 2
  30. Format                                   : PCM
  31. Format settings                          : Little / Signed
  32. Codec ID                                 : A_PCM/INT/LIT
  33. Duration                                 : 1 h 49 min
  34. Bit rate mode                            : Constant
  35. Bit rate                                 : 2 304 kb/s
  36. Channel(s)                               : 2 channels
  37. Sampling rate                            : 48.0 kHz
  38. Frame rate                               : 200.000 FPS (240 SPF)
  39. Bit depth                                : 24 bits
  40. Stream size                              : 1.77 GiB (9%)
  41. Language                                 : English
  42. Default                                  : Yes
  43. Forced                                   : No

  44. Audio #2
  45. ID                                       : 3
  46. Format                                   : PCM
  47. Format settings                          : Little / Signed
  48. Codec ID                                 : A_PCM/INT/LIT
  49. Duration                                 : 1 h 49 min
  50. Bit rate mode                            : Constant
  51. Bit rate                                 : 2 304 kb/s
  52. Channel(s)                               : 2 channels
  53. Sampling rate                            : 48.0 kHz
  54. Frame rate                               : 200.000 FPS (240 SPF)
  55. Bit depth                                : 24 bits
  56. Stream size                              : 1.77 GiB (9%)
  57. Title                                    : Commentary Track
  58. Language                                 : English
  59. Default                                  : No
  60. Forced                                   : No

  61. Text #1
  62. ID                                       : 4
  63. Format                                   : UTF-8
  64. Codec ID                                 : S_TEXT/UTF8
  65. Codec ID/Info                            : UTF-8 Plain Text
  66. Duration                                 : 1 h 47 min
  67. Bit rate                                 : 94 b/s
  68. Count of elements                        : 1847
  69. Stream size                              : 74.4 KiB (0%)
  70. Title                                    : English
  71. Language                                 : English
  72. Default                                  : No
  73. Forced                                   : No

  74. Text #2
  75. ID                                       : 5
  76. Format                                   : UTF-8
  77. Codec ID                                 : S_TEXT/UTF8
  78. Codec ID/Info                            : UTF-8 Plain Text
  79. Duration                                 : 1 h 47 min
  80. Bit rate                                 : 99 b/s
  81. Count of elements                        : 1925
  82. Stream size                              : 78.6 KiB (0%)
  83. Title                                    : English SDH
  84. Language                                 : English
  85. Default                                  : No
  86. Forced                                   : No

  87. Text #3
  88. ID                                       : 6
  89. Format                                   : PGS
  90. Codec ID                                 : S_HDMV/PGS
  91. Codec ID/Info                            : Picture based subtitle format used on BDs/HD-DVDs
  92. Duration                                 : 1 h 47 min
  93. Bit rate                                 : 79.8 kb/s
  94. Count of elements                        : 3850
  95. Stream size                              : 61.4 MiB (0%)
  96. Title                                    : English PGS
  97. Language                                 : English
  98. Default                                  : No
  99. Forced                                   : No

  100. Menu
  101. 00:00:00.000                             : :Chapter 01
  102. 00:16:35.995                             : :Chapter 02
  103. 00:30:46.803                             : :Chapter 03
  104. 00:44:37.049                             : :Chapter 04
  105. 00:56:37.519                             : :Chapter 05
  106. 01:06:48.922                             : :Chapter 06
  107. 01:19:23.634                             : :Chapter 07
  108. 01:39:19.871                             : :Chapter 08
复制代码


精彩剧照




蓝光高清网提示您 点击下方附件名称 马上开始下载



温馨提示:
本站资源优先使用迅雷下载,迅雷会员下载,速度基本可以跑满宽带
如果遇到无资源或者版权问题无法下载,推荐使用115网盘离线下载(点击查看115网盘离线下载教程


  • 该资源需要您回复以后 刷新网页进行下载操作

  • 1、Come.Back.to.the.5.and.Dime.Jimmy.Dean.Jimmy.Dean.1982.iNTERNAL.1080p.BluRay.x26.torrent 103KB 已下载 0 次

加入蓝光高清网VIP会员  无限制下载本站所有资源---点此加入

资源下载、资源播放、字幕使用、无法下载等常见问题---点这里

回复

使用道具 举报

精彩评论1

向上人生路 发表于 2019-11-17 11:10:44 | 显示全部楼层
感谢楼主分享

加入蓝光高清网VIP会员  无限制下载本站所有资源---点此加入

资源下载、资源播放、字幕使用、无法下载等常见问题---点这里

回复

使用道具 举报

懒得打字嘛,点击右侧快捷回复
高级模式
B Color Image Link Quote Code Smilies 上传

本版积分规则

关注0

粉丝0

帖子69462

发布主题
最新电影 论坛
本期活动
联系我们
点击这里联系客服

服务时间:
周一到周日8:00-23:30

  • 打开微信扫一扫
    关注公众号

  • 手机QQ扫一扫
    添加客服

Archiver手机版蓝光高清网 ( 渝ICP备18006373号-2 )|网站地图

Powered by Discuz! X3.4  © 2001-2013 Comsenz Inc.