[恐怖] 屠戮者:无情的杀戮 Slayer.The.Repentless.Killogy.2019.1080p.BluRay.x264-HANDJOB 10.26GB

[复制链接]
蓝鸟VIP会员 永久VIP 发表于 2019-11-17 08:35:29 | 显示全部楼层 |阅读模式 打印 上一主题 下一主题

马上注册,轻松下载,海量资源,让你轻松玩转社区。

您需要 登录 才可以下载或查看,没有帐号?立即注册

x


译  名 屠戮者:无情的杀戮
片  名 Slayer: The Repentless Killogy
年  代 2019
产  地 美国
类  别 恐怖
语  言 英语
上映日期 2019-11-06(芬兰/美国)
IMDb评分  7.1/10 from 113 users
IMDb链接  https://www.imdb.com/title/tt11062388
豆瓣评分 0/10 from 0 users
豆瓣链接 https://movie.douban.com/subject/34869655/
导  演 比利·约翰·麦克唐纳 BJ McDonnell / Wayne Isham
编  剧 比利·约翰·麦克唐纳 BJ McDonnell
主  演 Tom Araya
       Cody Banta
       Marv Blauvelt


简  介  

  "Slayer: The Repentless Killogy" is a short narrative film written and directed by BJ McDonnell, that blends the music of Slayer with an uncompromising and unmissable, trilogy of music videos assembled as one chronological story-line.


该资源信息参数
  1. Video
  2. ID                                       : 1
  3. Format                                   : AVC
  4. Format/Info                              : Advanced Video Codec
  5. Format profile                           : High@L4
  6. Format settings                          : CABAC / 4 Ref Frames
  7. Format settings, CABAC                   : Yes
  8. Format settings, Reference frames        : 4 frames
  9. Codec ID                                 : V_MPEG4/ISO/AVC
  10. Duration                                 : 2 h 10 min
  11. Bit rate                                 : 10.9 Mb/s
  12. Width                                    : 1 920 pixels
  13. Height                                   : 1 080 pixels
  14. Display aspect ratio                     : 16:9
  15. Frame rate mode                          : Constant
  16. Frame rate                               : 24.000 FPS
  17. Color space                              : YUV
  18. Chroma subsampling                       : 4:2:0
  19. Bit depth                                : 8 bits
  20. Scan type                                : Progressive
  21. Bits/(Pixel*Frame)                       : 0.219
  22. Stream size                              : 9.96 GiB (97%)
  23. Writing library                          : x264 core 157 r2935 545de2f
  24. Encoding settings                        : cabac=1 / ref=4 / deblock=1:-3:-3 / analyse=0x3:0x133 / me=umh / subme=10 / psy=1 / psy_rd=1.00:0.00 / mixed_ref=1 / me_range=32 / chroma_me=1 / trellis=2 / 8x8dct=1 / cqm=0 / deadzone=21,11 / fast_pskip=0 / chroma_qp_offset=-2 / threads=34 / lookahead_threads=8 / sliced_threads=0 / nr=0 / decimate=0 / interlaced=0 / bluray_compat=0 / constrained_intra=0 / bframes=16 / b_pyramid=2 / b_adapt=2 / b_bias=0 / direct=3 / weightb=1 / open_gop=0 / weightp=2 / keyint=240 / keyint_min=24 / scenecut=40 / intra_refresh=0 / rc_lookahead=60 / rc=crf / mbtree=0 / crf=21.0 / qcomp=0.60 / qpmin=0 / qpmax=69 / qpstep=4 / vbv_maxrate=62500 / vbv_bufsize=78125 / crf_max=0.0 / nal_hrd=none / filler=0 / ip_ratio=1.40 / pb_ratio=1.30 / aq=2:1.00
  25. Language                                 : English
  26. Default                                  : Yes
  27. Forced                                   : No
  28. Color range                              : Limited
  29. Color primaries                          : BT.709
  30. Transfer characteristics                 : BT.709
  31. Matrix coefficients                      : BT.709

  32. Audio
  33. ID                                       : 2
  34. Format                                   : AAC LC
  35. Format/Info                              : Advanced Audio Codec Low Complexity
  36. Codec ID                                 : A_AAC-2
  37. Duration                                 : 2 h 10 min
  38. Bit rate                                 : 320 kb/s
  39. Channel(s)                               : 2 channels
  40. Channel layout                           : L R
  41. Sampling rate                            : 48.0 kHz
  42. Frame rate                               : 46.875 FPS (1024 SPF)
  43. Compression mode                         : Lossy
  44. Stream size                              : 300 MiB (3%)
  45. Default                                  : Yes
  46. Forced                                   : No

  47. Menu
  48. 00:00:00.000                             : :Chapter 1
  49. 00:02:13.708                             : :Chapter 2
  50. 00:09:02.042                             : :Chapter 3
  51. 00:13:15.750                             : :Chapter 4
  52. 00:19:20.375                             : :Chapter 5
  53. 00:21:12.458                             : :Chapter 6
  54. 00:23:22.875                             : :Chapter 7
  55. 00:24:18.083                             : :Chapter 8
  56. 00:26:02.875                             : :Chapter 9
  57. 00:29:23.250                             : :Chapter 10
  58. 00:33:58.292                             : :Chapter 11
  59. 00:37:06.708                             : :Chapter 12
  60. 00:38:35.875                             : :Chapter 13
  61. 00:40:39.375                             : :Chapter 14
  62. 00:42:31.917                             : :Chapter 15
  63. 00:45:58.417                             : :Chapter 16
  64. 00:48:47.542                             : :Chapter 17
  65. 00:52:21.875                             : :Chapter 18
  66. 00:55:14.375                             : :Chapter 19
  67. 01:00:54.542                             : :Chapter 20
  68. 01:05:45.250                             : :Chapter 21
  69. 01:09:56.708                             : :Chapter 22
  70. 01:14:08.125                             : :Chapter 23
  71. 01:18:07.250                             : :Chapter 24
  72. 01:23:14.625                             : :Chapter 25
  73. 01:28:18.083                             : :Chapter 26
  74. 01:31:28.500                             : :Chapter 27
  75. 01:35:02.042                             : :Chapter 28
  76. 01:38:28.875                             : :Chapter 29
  77. 01:44:20.042                             : :Chapter 30
  78. 01:49:20.167                             : :Chapter 31
  79. 01:54:58.792                             : :Chapter 32
  80. 01:58:16.792                             : :Chapter 33
  81. 02:03:31.417                             : :Chapter 34
  82. 02:08:50.042                             : :Chapter 35
复制代码


精彩剧照




蓝光高清网提示您 点击下方附件名称 马上开始下载



温馨提示:
本站资源优先使用迅雷下载,迅雷会员下载,速度基本可以跑满宽带
如果遇到无资源或者版权问题无法下载,推荐使用115网盘离线下载(点击查看115网盘离线下载教程


  • 该资源需要您回复以后 刷新网页进行下载操作

  • 1、Slayer.The.Repentless.Killogy.2019.1080p.BluRay.x264-HANDJOB.torrent 52KB 已下载 4 次

加入蓝光高清网VIP会员  无限制下载本站所有资源---点此加入

资源下载、资源播放、字幕使用、无法下载等常见问题---点这里

回复

使用道具 举报

精彩评论2

HqWKekpk 发表于 2019-11-17 08:45:58 | 显示全部楼层
下载来看看

加入蓝光高清网VIP会员  无限制下载本站所有资源---点此加入

资源下载、资源播放、字幕使用、无法下载等常见问题---点这里

回复

使用道具 举报

向上人生路 发表于 2019-11-17 11:10:28 | 显示全部楼层
感谢楼主分享

加入蓝光高清网VIP会员  无限制下载本站所有资源---点此加入

资源下载、资源播放、字幕使用、无法下载等常见问题---点这里

回复

使用道具 举报

懒得打字嘛,点击右侧快捷回复
高级模式
B Color Image Link Quote Code Smilies 上传

本版积分规则

关注0

粉丝0

帖子69462

发布主题
最新电影 论坛
本期活动
联系我们
点击这里联系客服

服务时间:
周一到周日8:00-23:30

  • 打开微信扫一扫
    关注公众号

  • 手机QQ扫一扫
    添加客服

Archiver手机版蓝光高清网 ( 渝ICP备18006373号-2 )|网站地图

Powered by Discuz! X3.4  © 2001-2013 Comsenz Inc.