[纪录片] 马拉多纳 Diego.Maradona.2019.SUBBED.720p.BluRay.x264-CADAVER 5.46GB

[复制链接]
蓝鸟VIP会员 永久VIP 发表于 2019-11-17 09:14:08 | 显示全部楼层 |阅读模式 打印 上一主题 下一主题

马上注册,轻松下载,海量资源,让你轻松玩转社区。

您需要 登录 才可以下载或查看,没有帐号?立即注册

x


译  名 马拉多纳 / Diego Maradona
片  名 Diego Maradona
年  代 2019
产  地 英国
类  别 纪录片 / 运动
语  言 英语
上映日期 2019-05-19(戛纳电影节) / 2019-06-14(英国) / 2019-09-24(美国)
IMDb评分  7.6/10 from 2150 users
IMDb链接  http://www.imdb.com/title/tt5433114
豆瓣评分 0/10 from 0 users
豆瓣链接 https://movie.douban.com/subject/27045119/
片  长 120分钟
导  演 阿斯弗·卡帕迪尔 Asif Kapadia
主  演 迭戈·马拉多纳 Diego Armando Maradona
       Claudia Villafa?e
       Diego Maradona Jr.
       Corrado Ferlaino
       Maria Rosa Maradona
       Cristiana Sinagra


标  签 纪录片 | 体育 | 2019 | 英国 | 马拉多纳 | 戛纳电影节 | 阿斯弗·卡帕迪尔 | 阿根廷

简  介  

  他是足球天才、球場上帝、叛逆英雄,還是騙徒一名?馬勒當拿由窮家小子變身神一樣的球星,天價轉會拿玻里,世界盃上帝之手舉世聞名。然而登上事業頂峰,人生也開始變質走樣,在黑手黨橫行之城,沉淪毒海,私生活一塌糊塗。拍過《極速傳奇:冼拿》( 2 0 1 0 ) 及奧斯卡得獎作《A m y 》(2015)的卡巴迪亞,嘗試重組球王的璀璨歲月與成名代價,搜羅超過五百小時從未曝光珍貴片段,近距離呈現風光背後的失意、背叛、腐敗和救贖。
  康城影展

获奖情况  

  第72届洛迦诺国际电影节(2019)
  Variety Piazza Grande Award(提名) 阿斯弗·卡帕迪尔


该资源信息参数
  1. Video
  2. ID                                       : 1
  3. Format                                   : AVC
  4. Format/Info                              : Advanced Video Codec
  5. Format profile                           : High@L4
  6. Format settings                          : CABAC / 9 Ref Frames
  7. Format settings, CABAC                   : Yes
  8. Format settings, Reference frames        : 9 frames
  9. Codec ID                                 : V_MPEG4/ISO/AVC
  10. Duration                                 : 2 h 4 min
  11. Bit rate                                 : 4 782 kb/s
  12. Width                                    : 1 280 pixels
  13. Height                                   : 720 pixels
  14. Display aspect ratio                     : 16:9
  15. Frame rate mode                          : Constant
  16. Frame rate                               : 25.000 FPS
  17. Color space                              : YUV
  18. Chroma subsampling                       : 4:2:0
  19. Bit depth                                : 8 bits
  20. Scan type                                : Progressive
  21. Bits/(Pixel*Frame)                       : 0.208
  22. Stream size                              : 4.15 GiB (76%)
  23. Writing library                          : x264 core 158 r2988 7817004
  24. Encoding settings                        : cabac=1 / ref=9 / deblock=1:-3:-3 / analyse=0x3:0x133 / me=umh / subme=9 / psy=1 / psy_rd=1.00:0.00 / mixed_ref=1 / me_range=24 / chroma_me=1 / trellis=1 / 8x8dct=1 / cqm=0 / deadzone=21,11 / fast_pskip=0 / chroma_qp_offset=-2 / threads=22 / lookahead_threads=3 / sliced_threads=0 / nr=0 / decimate=1 / interlaced=0 / bluray_compat=0 / constrained_intra=0 / bframes=8 / b_pyramid=2 / b_adapt=2 / b_bias=0 / direct=3 / weightb=1 / open_gop=0 / weightp=2 / keyint=250 / keyint_min=25 / scenecut=40 / intra_refresh=0 / rc_lookahead=60 / rc=2pass / mbtree=1 / bitrate=4782 / ratetol=1.0 / qcomp=0.60 / qpmin=0 / qpmax=69 / qpstep=4 / cplxblur=20.0 / qblur=0.5 / vbv_maxrate=62500 / vbv_bufsize=78125 / nal_hrd=none / filler=0 / ip_ratio=1.40 / aq=1:1.00
  25. Default                                  : Yes
  26. Forced                                   : No

  27. Audio
  28. ID                                       : 2
  29. Format                                   : DTS
  30. Format/Info                              : Digital Theater Systems
  31. Codec ID                                 : A_DTS
  32. Duration                                 : 2 h 4 min
  33. Bit rate mode                            : Constant
  34. Bit rate                                 : 1 509 kb/s
  35. Channel(s)                               : 6 channels
  36. Channel layout                           : C L R Ls Rs LFE
  37. Sampling rate                            : 48.0 kHz
  38. Frame rate                               : 93.750 FPS (512 SPF)
  39. Bit depth                                : 24 bits
  40. Compression mode                         : Lossy
  41. Stream size                              : 1.31 GiB (24%)
  42. Language                                 : Spanish
  43. Default                                  : Yes
  44. Forced                                   : No

  45. Menu
  46. 00:00:00.000                             : en:Chapter 01
  47. 00:09:41.480                             : en:Chapter 02
  48. 00:18:25.600                             : en:Chapter 03
  49. 00:29:12.280                             : en:Chapter 04
  50. 00:44:46.920                             : en:Chapter 05
  51. 01:00:21.760                             : en:Chapter 06
  52. 01:11:28.320                             : en:Chapter 07
  53. 01:21:58.520                             : en:Chapter 08
  54. 01:30:04.160                             : en:Chapter 09
  55. 01:41:56.160                             : en:Chapter 10
  56. 01:52:44.920                             : en:Chapter 11
  57. 01:59:48.920                             : en:Chapter 12
复制代码


精彩剧照









蓝光高清网提示您 点击下方附件名称 马上开始下载



温馨提示:
本站资源优先使用迅雷下载,迅雷会员下载,速度基本可以跑满宽带
如果遇到无资源或者版权问题无法下载,推荐使用115网盘离线下载(点击查看115网盘离线下载教程


  • 该资源需要您回复以后 刷新网页进行下载操作

  • 1、Diego.Maradona.2019.SUBBED.720p.BluRay.x264-CADAVER.torrent 28KB 已下载 0 次

加入蓝光高清网VIP会员  无限制下载本站所有资源---点此加入

资源下载、资源播放、字幕使用、无法下载等常见问题---点这里

回复

使用道具 举报

懒得打字嘛,点击右侧快捷回复
高级模式
B Color Image Link Quote Code Smilies 上传

本版积分规则

关注0

粉丝0

帖子69282

发布主题
最新电影 论坛
广告位
联系我们
点击这里联系客服

服务时间:
周一到周日8:00-23:30

  • 打开微信扫一扫
    关注公众号

  • 手机QQ扫一扫
    添加客服

Archiver手机版蓝光高清网 ( 渝ICP备18006373号-2 )|网站地图

Powered by Discuz! X3.4  © 2001-2013 Comsenz Inc.