天使陷落/奥林匹斯的陷落3
4K 4K HDR 4K SDR 
6.4
  • 年代: 2019年
  • 国家/地区: 美国
  • 类型: 动作 犯罪 
  • 导演: 里克·罗曼·沃夫
  • 音轨: Dolby TrueHD 7.1 Dolby Atmos 
  • 时长: 121分钟
  • 主演:杰拉德·巴特勒 / 摩根·弗里曼 / 派珀·佩拉博 / 兰斯·莱迪克
特别声明:本站提供的所有高清电影作品均是在网上搜集,任何涉及商业盈利目的均不得使用,否则产生的一切后果将由您自己承担!本站将不对本站的任何内容负任何法律责任!该下载内容仅做宽带测试使用,请在下载后24小时内删除。请购买正版! 本站所有资源均由网上收集而来,版权归原影音公司所有,如果侵犯了你的权益,请通知我们,我们会及时删除侵权内容.

天使陷落/奥林匹斯的陷落3 Angel.Has.Fallen.2019.2160p.杜比全景声 多版本注意区分

[复制链接]
蓝鸟VIP会员 永久VIP 发表于 2019-11-19 11:58:39 | 显示全部楼层 |阅读模式 打印 上一主题 下一主题

马上注册,轻松下载,海量资源,让你轻松玩转社区。

您需要 登录 才可以下载或查看,没有帐号?立即注册

x
本帖最后由 蓝鸟 于 2019-11-19 12:34 编辑
# G. g1 W& n' F+ t, X- @7 C+ z6 F+ _
简  介  # V' D$ r  f# D
5 B& W2 X, q" k$ }7 T" p" {( T
  美国总统(摩根·弗里曼饰)在遭遇无人机恐怖袭击后身受重伤陷入昏迷,随行人员在多次爆炸中全军覆没,唯一的幸存者——总统多年贴身保镖迈克·班宁(杰拉德·巴特勒饰)却成最大嫌疑犯,被FBI控告企图暗杀总统。班宁必须给自己洗刷冤屈,同时阻止真正的刺杀总统计划,在多方势力围追堵截下,走投无路的他只能寻求一名神秘人的保护……曾经的英雄保镖如今变为通缉犯,班宁将如何脱离险境、保护总统,破解背后的阴谋?
+ a2 H. p+ H6 D% }% L6 b# Q1 \
  • Video
  • ID                                       : 1
  • Format                                   : HEVC
  • Format/Info                              : High Efficiency Video Coding
  • Format profile                           : Main High@L4@High
  • HDR format                               : SMPTE ST 2086, HDR10 compatible
  • Codec ID                                 : V_MPEGH/ISO/HEVC
  • Duration                                 : 2 h 1 min
  • Bit rate                                 : 18.0 Mb/s
  • Width                                    : 3 840 pixels
  • Height                                   : 1 606 pixels
  • Display aspect ratio                     : 2.40:1
  • Frame rate mode                          : Constant
  • Frame rate                               : 23.976 (24000/1001) FPS
  • Color space                              : YUV
  • Chroma subsampling                       : 4:2:0 (Type 2)
  • Bit depth                                : 10 bits
  • Bits/(Pixel*Frame)                       : 0.122
  • Stream size                              : 15.2 GiB (83%)
  • Title                                    : Angel.Has.Fallen.2019.2160p.UHD.BluRay.x265-AAAUHD
  • Writing library                          : x265 3.27fc1f6ef2b96:[Windows][GCC 9.2.1][64 bit] 10bit
  • Encoding settings                        : cpuid=1111039 / frame-threads=4 / numa-pools=24 / wpp / no-pmode / no-pme / no-psnr / no-ssim / log-level=2 / input-csp=1 / input-res=3840x1606 / interlace=0 / total-frames=174146 / level-idc=51 / high-tier=1 / uhd-bd=0 / ref=4 / no-allow-non-conformance / repeat-headers / annexb / aud / hrd / info / hash=0 / no-temporal-layers / no-open-gop / min-keyint=1 / keyint=24 / gop-lookahead=0 / bframes=4 / b-adapt=2 / b-pyramid / bframe-bias=0 / rc-lookahead=25 / lookahead-slices=4 / scenecut=40 / radl=0 / no-splice / no-intra-refresh / ctu=64 / min-cu-size=8 / rect / no-amp / max-tu-size=32 / tu-inter-depth=1 / tu-intra-depth=1 / limit-tu=0 / rdoq-level=2 / dynamic-rd=0.00 / no-ssim-rd / signhide / no-tskip / nr-intra=0 / nr-inter=0 / no-constrained-intra / no-strong-intra-smoothing / max-merge=3 / limit-refs=3 / limit-modes / me=3 / subme=3 / merange=57 / temporal-mvp / no-frame-dup / no-hme / weightp / no-weightb / no-analyze-src-pics / deblock=-3:-3 / no-sao / no-sao-non-deblock / rd=4 / selective-sao=0 / no-early-skip / rskip / no-fast-intra / no-tskip-fast / no-cu-lossless / no-b-intra / no-splitrd-skip / rdpenalty=0 / psy-rd=2.00 / psy-rdoq=1.00 / no-rd-refine / no-lossless / cbqpoffs=0 / crqpoffs=0 / rc=crf / crf=17.0 / qcomp=0.60 / qpstep=4 / stats-write=0 / stats-read=0 / vbv-maxrate=160000 / vbv-bufsize=160000 / vbv-init=0.9 / crf-max=0.0 / crf-min=0.0 / ipratio=1.40 / pbratio=1.30 / aq-mode=2 / aq-strength=1.00 / cutree / zone-count=0 / no-strict-cbr / qg-size=32 / no-rc-grain / qpmax=69 / qpmin=0 / no-const-vbv / sar=1 / overscan=0 / videoformat=5 / range=0 / colorprim=9 / transfer=16 / colormatrix=9 / chromaloc=1 / chromaloc-top=2 / chromaloc-bottom=2 / display-window=0 / master-display=G(13250,34500)B(7500,3000)R(34000,16000)WP(15635,16450)L(10000000,10) / cll=1000,634 / min-luma=0 / max-luma=1023 / log2-max-poc-lsb=8 / vui-timing-info / vui-hrd-info / slices=1 / no-opt-qp-pps / no-opt-ref-list-length-pps / no-multi-pass-opt-rps / scenecut-bias=0.05 / no-opt-cu-delta-qp / no-aq-motion / hdr / hdr-opt / no-dhdr10-opt / no-idr-recovery-sei / analysis-reuse-level=5 / scale-factor=0 / refine-intra=0 / refine-inter=0 / refine-mv=1 / refine-ctu-distortion=0 / no-limit-sao / ctu-info=0 / no-lowpass-dct / refine-analysis-type=0 / copy-pic=1 / max-ausize-factor=1.0 / no-dynamic-refine / no-single-sei / no-hevc-aq / no-svt / no-field / qp-adaptation-range=1.00
  • Default                                  : Yes
  • Forced                                   : No
  • Color range                              : Limited
  • Color primaries                          : BT.2020
  • Transfer characteristics                 : PQ
  • Matrix coefficients                      : BT.2020 non-constant
  • Mastering display color primaries        : Display P3
  • Mastering display luminance              : min: 0.0010 cd/m2, max: 1000 cd/m2
  • Maximum Content Light Level              : 1000 cd/m2
  • Maximum Frame-Average Light Level        : 634 cd/m2
  • Audio #1
  • ID                                       : 2
  • Format                                   : MLP FBA 16-ch
  • Format/Info                              : Meridian Lossless Packing FBA with 16-channel presentation
  • Commercial name                          : Dolby TrueHD with Dolby Atmos
  • Codec ID                                 : A_TRUEHD
  • Duration                                 : 2 h 1 min
  • Bit rate mode                            : Variable
  • Bit rate                                 : 3 046 kb/s
  • Maximum bit rate                         : 5 010 kb/s
  • Channel(s)                               : 8 channels
  • Channel layout                           : L R C LFE Ls Rs Lb Rb
  • Sampling rate                            : 48.0 kHz
  • Frame rate                               : 1 200.000 FPS (40 SPF)
  • Compression mode                         : Lossless
  • Stream size                              : 2.58 GiB (14%)
  • Title                                    : English Dolby TrueHD with Dolby Atmos (TrueHD)
  • Language                                 : English
  • Default                                  : Yes
  • Forced                                   : No
  • Number of dynamic objects                : 11
  • Bed channel count                        : 1 channel
  • Bed channel configuration                : LFE
  • Audio #2
  • ID                                       : 3
  • Format                                   : AC-3
  • Format/Info                              : Audio Coding 3
  • Commercial name                          : Dolby Digital
  • Codec ID                                 : A_AC3
  • Duration                                 : 2 h 1 min
  • Bit rate mode                            : Constant
  • Bit rate                                 : 640 kb/s
  • Channel(s)                               : 6 channels
  • Channel layout                           : L R C LFE Ls Rs
  • Sampling rate                            : 48.0 kHz
  • Frame rate                               : 31.250 FPS (1536 SPF)
  • Bit depth                                : 16 bits
  • Compression mode                         : Lossy
  • Stream size                              : 554 MiB (3%)
  • Title                                    : English Dolby Digital (AC3)
  • Language                                 : English
  • Service kind                             : Complete Main
  • Default                                  : No
  • Forced                                   : No
  • Text #1
  • ID                                       : 4
  • Format                                   : UTF-8
  • Codec ID                                 : S_TEXT/UTF8
  • Codec ID/Info                            : UTF-8 Plain Text
  • Duration                                 : 1 h 52 min
  • Bit rate                                 : 63 b/s
  • Count of elements                        : 1542
  • Stream size                              : 52.3 KiB (0%)
  • Title                                    : English SDH
  • Language                                 : English
  • Default                                  : No
  • Forced                                   : No
  • Text #2
  • ID                                       : 5
  • Format                                   : PGS
  • Codec ID                                 : S_HDMV/PGS
  • Codec ID/Info                            : Picture based subtitle format used on BDs/HD-DVDs
  • Duration                                 : 1 h 52 min
  • Bit rate                                 : 44.7 kb/s
  • Count of elements                        : 3092
  • Stream size                              : 36.1 MiB (0%)
  • Title                                    : English PGS
  • Language                                 : English
  • Default                                  : No
  • Forced                                   : No
  • Menu
  • 00:00:00.000                             : :Chapter 01
  • 00:06:48.950                             : :Chapter 02
  • 00:15:08.157                             : :Chapter 03
  • 00:23:13.809                             : :Chapter 04
  • 00:28:35.714                             : :Chapter 05
  • 00:39:39.627                             : :Chapter 06
  • 00:45:33.564                             : :Chapter 07
  • 00:50:56.053                             : :Chapter 08
  • 00:59:23.393                             : :Chapter 09
  • 01:06:50.882                             : :Chapter 10
  • 01:16:25.873                             : :Chapter 11
  • 01:24:11.046                             : :Chapter 12
  • 01:30:14.409                             : :Chapter 13
  • 01:37:42.065                             : :Chapter 14
  • 01:44:54.538                             : :Chapter 15
  • 01:51:08.120                             : :Chapter 16& D! O5 t) B' s- W1 U4 q9 e0 Z( |
! V9 x6 S( F# e; Y8 |8 g) x

/ a2 A6 b  h" j7 \9 |: W4 _9 o
; t8 b8 g3 Q, e" R, V. l  e7 N精彩剧照
1 c  x$ I7 L" {% }' j; Y

1 A( r* d/ f4 L) Q
8 D9 Q! d6 [% O0 y5 l7 B: }7 p

天使陷落/奥林匹斯的陷落3 Angel.Has.Fallen.2019.2160p.杜比全景声 多版本注意区分 ...

天使陷落/奥林匹斯的陷落3 Angel.Has.Fallen.2019.2160p.杜比全景声 多版本注意区分 ...

天使陷落/奥林匹斯的陷落3 Angel.Has.Fallen.2019.2160p.杜比全景声 多版本注意区分 ...

天使陷落/奥林匹斯的陷落3 Angel.Has.Fallen.2019.2160p.杜比全景声 多版本注意区分 ...

天使陷落/奥林匹斯的陷落3 Angel.Has.Fallen.2019.2160p.杜比全景声 多版本注意区分 ...

天使陷落/奥林匹斯的陷落3 Angel.Has.Fallen.2019.2160p.杜比全景声 多版本注意区分 ...

天使陷落/奥林匹斯的陷落3 Angel.Has.Fallen.2019.2160p.杜比全景声 多版本注意区分 ...

天使陷落/奥林匹斯的陷落3 Angel.Has.Fallen.2019.2160p.杜比全景声 多版本注意区分 ...

天使陷落/奥林匹斯的陷落3 Angel.Has.Fallen.2019.2160p.杜比全景声 多版本注意区分 ...

天使陷落/奥林匹斯的陷落3 Angel.Has.Fallen.2019.2160p.杜比全景声 多版本注意区分 ...

天使陷落/奥林匹斯的陷落3 Angel.Has.Fallen.2019.2160p.杜比全景声 多版本注意区分 ...

天使陷落/奥林匹斯的陷落3 Angel.Has.Fallen.2019.2160p.杜比全景声 多版本注意区分 ...

* r% B& d( w: v$ B
5 w2 m8 ?+ X) o0 ]9 d9 c$ C

2 l- x" Y' c2 a* C& ?$ R1 N' q  w
( N- ]. P, I9 y
6 q9 c7 g: X+ ^7 q1 z8 P
蓝光高清网提示您  点击下方附件名称  马上开始下载8 K$ _' p; S) t: h2 R

" c! K3 m& {" \) t

2 ?6 K& I+ v8 V6 R8 Q* L多版本下载时请注意区分
3 r' C2 l& e% T8 A% @- ]) Q! G* l" e( I- {( c
& W- I& h3 ?' |; ]- c

# _0 H% w+ z! D天使陷落/奥林匹斯的陷落3 Angel.Has.Fallen.2019.2160p.UHD.BluRay.X265.10bit.HDR.TrueHD.7.1.Atmos-AAAUHD 18.59GB
0 m$ b9 _; R4 W' G8 W7 p& u Angel.Has.Fallen.2019.2160p.UHD.BluRay.X265.10bit.HDR.TrueHD.7.1.Atmos-AAAUHD.torrent (93.65 KB, 下载次数: 9)

加入蓝光高清网VIP会员  无限制下载本站所有资源---点此加入

资源下载、资源播放、字幕使用、无法下载等常见问题---点这里

回复

使用道具 举报

精彩评论27

键油授氲苫 发表于 2019-11-19 12:20:53 | 显示全部楼层
好网站 希望越来越好

加入蓝光高清网VIP会员  无限制下载本站所有资源---点此加入

资源下载、资源播放、字幕使用、无法下载等常见问题---点这里

回复

使用道具 举报

binghuabao 发表于 2019-11-19 12:31:20 | 显示全部楼层
路过,学习下

加入蓝光高清网VIP会员  无限制下载本站所有资源---点此加入

资源下载、资源播放、字幕使用、无法下载等常见问题---点这里

回复

使用道具 举报

peakzon 发表于 2019-11-19 12:46:40 | 显示全部楼层
楼主幸苦了

加入蓝光高清网VIP会员  无限制下载本站所有资源---点此加入

资源下载、资源播放、字幕使用、无法下载等常见问题---点这里

回复

使用道具 举报

13726833137 发表于 2019-11-19 13:17:01 | 显示全部楼层
楼主,我太崇拜你了!

加入蓝光高清网VIP会员  无限制下载本站所有资源---点此加入

资源下载、资源播放、字幕使用、无法下载等常见问题---点这里

回复

使用道具 举报

luki2020 发表于 2019-11-19 13:37:09 | 显示全部楼层
不管怎么说就是支持,感谢版主的无私付出

加入蓝光高清网VIP会员  无限制下载本站所有资源---点此加入

资源下载、资源播放、字幕使用、无法下载等常见问题---点这里

回复

使用道具 举报

6675499 发表于 2019-11-19 14:40:18 | 显示全部楼层
收藏了  谢谢

加入蓝光高清网VIP会员  无限制下载本站所有资源---点此加入

资源下载、资源播放、字幕使用、无法下载等常见问题---点这里

回复

使用道具 举报

infzone 发表于 2019-11-19 15:20:50 | 显示全部楼层
路过,学习下

加入蓝光高清网VIP会员  无限制下载本站所有资源---点此加入

资源下载、资源播放、字幕使用、无法下载等常见问题---点这里

回复

使用道具 举报

as2002 发表于 2019-11-19 16:01:44 | 显示全部楼层
楼主发贴辛苦了,谢谢楼主分享!

加入蓝光高清网VIP会员  无限制下载本站所有资源---点此加入

资源下载、资源播放、字幕使用、无法下载等常见问题---点这里

回复

使用道具 举报

602041678 发表于 2019-11-19 16:38:12 | 显示全部楼层
感谢楼主的无私分享!

加入蓝光高清网VIP会员  无限制下载本站所有资源---点此加入

资源下载、资源播放、字幕使用、无法下载等常见问题---点这里

回复

使用道具 举报

懒得打字嘛,点击右侧快捷回复
您需要登录后才可以回帖 登录 | 立即注册

本版积分规则

关注0

粉丝0

帖子69282

发布主题
最新电影 论坛
广告位
联系我们
点击这里联系客服

服务时间:
周一到周日8:00-23:30

  • 打开微信扫一扫
    关注公众号

  • 手机QQ扫一扫
    添加客服

Archiver手机版蓝光高清网 ( 渝ICP备18006373号-2 )|网站地图

Powered by Discuz! X3.4  © 2001-2013 Comsenz Inc.