速度与激情:特别行动
hsbs half-ou sbs 
6.3
  • 年代: 2019年
  • 国家/地区: 美国
  • 类型: 动作 犯罪 
  • 导演: 大卫·雷奇
  • 音轨: Dolby TrueHD 7.1 Dolby Atmos 
  • 时长: 137分钟
  • 主演:道恩·强森 / 杰森·斯坦森 / 伊德里斯·艾尔巴 / 凡妮莎·柯比
特别声明:本站提供的所有高清电影作品均是在网上搜集,任何涉及商业盈利目的均不得使用,否则产生的一切后果将由您自己承担!本站将不对本站的任何内容负任何法律责任!该下载内容仅做宽带测试使用,请在下载后24小时内删除。请购买正版! 本站所有资源均由网上收集而来,版权归原影音公司所有,如果侵犯了你的权益,请通知我们,我们会及时删除侵权内容.

速度与激情:特别行动 Fast.and.Furious.Presents.Hobbs.and.Shaw.2019.1080p.3D 杜比全景声 多版本注意区分

[复制链接]
蓝鸟 发表于 2019-11-20 08:43:29 | 显示全部楼层 |阅读模式 打印 上一主题 下一主题
简  介  
8 ~4 n# `4 B  |4 h# N
2 l, ]0 s  O2 P. v& d2 X+ s  一个是美国外交安全局的忠诚特工、身材魁梧的执法者霍布斯(强森饰),一个是前英国军事特工精英、无法无天的恶棍肖(斯坦森饰)。在2015年的《速度与激情7》中首次对峙之后,两人不论言语还是肢体都冲突不断,一直试图打倒对方。
& C. F& S$ W0 f6 K3 @: W; |) _. P  然而,通过高科技进行了基因增强的无政府主义者布里克斯顿(伊德瑞斯·艾尔巴饰)控制了一种可能永远改变人类命运的不为人知的生化武器,并且还打败了一位大胆优秀又特立独行的军情六处特工(曾出演《王冠》的凡妮莎·科比饰)——她恰好是肖的妹妹,为了扳倒这个世界上唯一可能比他们更厉害的敌人,这两个不共戴天的宿敌不得不联手。3 E/ T0 W! ?$ C9 q& q+ X' P
  《速度与激情:特别行动》一片在《速度与激情》系列的宇宙中推开了一扇全新的大门。从洛杉矶到伦敦,从切尔诺贝利的有毒废墟到美丽的南太平洋岛国萨摩亚,本次特别行动席卷全球。
% S" S5 K# k  n* Q0 P- X9 P  该片由大卫·雷奇执导(《死侍2》导演),由《速度与激情》系列故事的缔造者克里斯·摩根编剧,摩根、强森、斯坦森和海拉姆·加西亚共同担纲制片。丹尼·加西亚、凯利·麦考密克、 、史蒂文·查斯曼、伊森·史密斯和安斯利·戴维斯担任监制。
! X  q6 V7 B" l1 Q% O" [7 {# z# w
影片参数/ d8 H- n7 _: L
/ t& O7 I3 W* {6 j3 X! c& g4 x+ T
  • Video
  • ID                                       : 1
  • Format                                   : AVC
  • Format/Info                              : Advanced Video Codec
  • Format profile                           : High@L4
  • Format settings                          : CABAC / 3 Ref Frames
  • Format settings, CABAC                   : Yes
  • Format settings, Reference frames        : 3 frames
  • Codec ID                                 : V_MPEG4/ISO/AVC
  • Duration                                 : 2 h 15 min
  • Bit rate                                 : 15.5 Mb/s
  • Width                                    : 1 920 pixels
  • Height                                   : 1 080 pixels
  • Display aspect ratio                     : 16:9
  • Frame rate mode                          : Constant
  • Frame rate                               : 23.976 (24000/1001) FPS
  • Color space                              : YUV
  • Chroma subsampling                       : 4:2:0
  • Bit depth                                : 8 bits
  • Scan type                                : Progressive
  • Bits/(Pixel*Frame)                       : 0.312
  • Stream size                              : 14.7 GiB (67%)
  • Title                                    : Fast.and.Furious.Presents.Hobbs.and.Shaw.2019.1080p.3D.BluRay.Half-SBS.x264.TrueHD.7.1.Atmos-FGT
  • Writing library                          : x264 core 148
  • Encoding settings                        : cabac=1 / ref=3 / deblock=1:-1:-1 / analyse=0x3:0 / me=hex / subme=5 / psy=1 / psy_rd=1.00:0.00 / mixed_ref=0 / me_range=16 / chroma_me=1 / trellis=1 / 8x8dct=1 / cqm=0 / deadzone=21,11 / fast_pskip=0 / chroma_qp_offset=0 / threads=24 / lookahead_threads=6 / sliced_threads=0 / nr=0 / decimate=1 / interlaced=0 / bluray_compat=0 / constrained_intra=0 / bframes=2 / b_pyramid=0 / b_adapt=1 / b_bias=0 / direct=1 / weightb=0 / open_gop=0 / weightp=0 / keyint=24 / keyint_min=2 / scenecut=40 / intra_refresh=0 / rc=abr / mbtree=0 / bitrate=15500 / ratetol=1.0 / qcomp=0.60 / qpmin=0 / qpmax=69 / qpstep=4 / ip_ratio=1.40 / pb_ratio=1.30 / aq=1:1.00
  • Default                                  : Yes
  • Forced                                   : No
  • Color range                              : Limited
  • Color primaries                          : BT.709
  • Transfer characteristics                 : BT.709
  • Matrix coefficients                      : BT.709
  • Audio #1
  • ID                                       : 2
  • Format                                   : MLP FBA 16-ch
  • Format/Info                              : Meridian Lossless Packing FBA with 16-channel presentation
  • Commercial name                          : Dolby TrueHD with Dolby Atmos
  • Codec ID                                 : A_TRUEHD
  • Duration                                 : 2 h 15 min
  • Bit rate mode                            : Variable
  • Bit rate                                 : 3 120 kb/s
  • Maximum bit rate                         : 5 127 kb/s
  • Channel(s)                               : 8 channels
  • Channel layout                           : L R C LFE Ls Rs Lb Rb
  • Sampling rate                            : 48.0 kHz
  • Frame rate                               : 1 200.000 FPS (40 SPF)
  • Compression mode                         : Lossless
  • Stream size                              : 2.96 GiB (13%)
  • Title                                    : Fast.and.Furious.Presents.Hobbs.and.Shaw.2019.1080p.3D.BluRay.Half-SBS.x264.TrueHD.7.1.Atmos-FGT
  • Language                                 : English
  • Default                                  : Yes
  • Forced                                   : No
  • Number of dynamic objects                : 11
  • Bed channel count                        : 1 channel
  • Bed channel configuration                : LFE
  • Audio #2
  • ID                                       : 3
  • Format                                   : AC-3
  • Format/Info                              : Audio Coding 3
  • Commercial name                          : Dolby Digital
  • Codec ID                                 : A_AC3
  • Duration                                 : 2 h 15 min
  • Bit rate mode                            : Constant
  • Bit rate                                 : 448 kb/s
  • Channel(s)                               : 6 channels
  • Channel layout                           : L R C LFE Ls Rs
  • Sampling rate                            : 48.0 kHz
  • Frame rate                               : 31.250 FPS (1536 SPF)
  • Bit depth                                : 16 bits
  • Compression mode                         : Lossy
  • Stream size                              : 435 MiB (2%)
  • Title                                    : Fast.and.Furious.Presents.Hobbs.and.Shaw.2019.1080p.3D.BluRay.Half-SBS.x264.TrueHD.7.1.Atmos-FGT
  • Language                                 : English
  • Service kind                             : Complete Main
  • Default                                  : No
  • Forced                                   : No
  • Audio #3
  • ID                                       : 4
  • Format                                   : E-AC-3
  • Format/Info                              : Enhanced AC-3
  • Commercial name                          : Dolby Digital Plus
  • Format profile                           : Blu-ray Disc
  • Codec ID                                 : A_EAC3
  • Duration                                 : 2 h 15 min
  • Bit rate mode                            : Constant
  • Bit rate                                 : 768 kb/s
  • Channel(s)                               : 8 channels
  • Channel layout                           : L R C LFE Ls Rs Lb Rb
  • Sampling rate                            : 48.0 kHz
  • Frame rate                               : 31.250 FPS (1536 SPF)
  • Compression mode                         : Lossy
  • Stream size                              : 747 MiB (3%)
  • Title                                    : Fast.and.Furious.Presents.Hobbs.and.Shaw.2019.1080p.3D.BluRay.Half-SBS.x264.TrueHD.7.1.Atmos-FGT
  • Language                                 : French
  • Service kind                             : Complete Main
  • Default                                  : No
  • Forced                                   : No
  • Audio #4
  • ID                                       : 5
  • Format                                   : E-AC-3
  • Format/Info                              : Enhanced AC-3
  • Commercial name                          : Dolby Digital Plus
  • Format profile                           : Blu-ray Disc
  • Codec ID                                 : A_EAC3
  • Duration                                 : 2 h 15 min
  • Bit rate mode                            : Constant
  • Bit rate                                 : 768 kb/s
  • Channel(s)                               : 8 channels
  • Channel layout                           : L R C LFE Ls Rs Lb Rb
  • Sampling rate                            : 48.0 kHz
  • Frame rate                               : 31.250 FPS (1536 SPF)
  • Compression mode                         : Lossy
  • Stream size                              : 747 MiB (3%)
  • Title                                    : Fast.and.Furious.Presents.Hobbs.and.Shaw.2019.1080p.3D.BluRay.Half-SBS.x264.TrueHD.7.1.Atmos-FGT
  • Language                                 : Italian
  • Service kind                             : Complete Main
  • Default                                  : No
  • Forced                                   : No
  • Audio #5
  • ID                                       : 6
  • Format                                   : E-AC-3
  • Format/Info                              : Enhanced AC-3
  • Commercial name                          : Dolby Digital Plus
  • Format profile                           : Blu-ray Disc
  • Codec ID                                 : A_EAC3
  • Duration                                 : 2 h 15 min
  • Bit rate mode                            : Constant
  • Bit rate                                 : 768 kb/s
  • Channel(s)                               : 8 channels
  • Channel layout                           : L R C LFE Ls Rs Lb Rb
  • Sampling rate                            : 48.0 kHz
  • Frame rate                               : 31.250 FPS (1536 SPF)
  • Compression mode                         : Lossy
  • Stream size                              : 747 MiB (3%)
  • Title                                    : Fast.and.Furious.Presents.Hobbs.and.Shaw.2019.1080p.3D.BluRay.Half-SBS.x264.TrueHD.7.1.Atmos-FGT
  • Language                                 : Spanish
  • Service kind                             : Complete Main
  • Default                                  : No
  • Forced                                   : No
  • Audio #6
  • ID                                       : 7
  • Format                                   : AC-3
  • Format/Info                              : Audio Coding 3
  • Commercial name                          : Dolby Digital
  • Codec ID                                 : A_AC3
  • Duration                                 : 2 h 15 min
  • Bit rate mode                            : Constant
  • Bit rate                                 : 640 kb/s
  • Channel(s)                               : 6 channels
  • Channel layout                           : L R C LFE Ls Rs
  • Sampling rate                            : 48.0 kHz
  • Frame rate                               : 31.250 FPS (1536 SPF)
  • Bit depth                                : 16 bits
  • Compression mode                         : Lossy
  • Stream size                              : 622 MiB (3%)
  • Title                                    : Fast.and.Furious.Presents.Hobbs.and.Shaw.2019.1080p.3D.BluRay.Half-SBS.x264.TrueHD.7.1.Atmos-FGT
  • Language                                 : Czech
  • Service kind                             : Complete Main
  • Default                                  : No
  • Forced                                   : No
  • Audio #7
  • ID                                       : 8
  • Format                                   : AC-3
  • Format/Info                              : Audio Coding 3
  • Commercial name                          : Dolby Digital
  • Codec ID                                 : A_AC3
  • Duration                                 : 2 h 15 min
  • Bit rate mode                            : Constant
  • Bit rate                                 : 640 kb/s
  • Channel(s)                               : 6 channels
  • Channel layout                           : L R C LFE Ls Rs
  • Sampling rate                            : 48.0 kHz
  • Frame rate                               : 31.250 FPS (1536 SPF)
  • Bit depth                                : 16 bits
  • Compression mode                         : Lossy
  • Stream size                              : 622 MiB (3%)
  • Title                                    : Fast.and.Furious.Presents.Hobbs.and.Shaw.2019.1080p.3D.BluRay.Half-SBS.x264.TrueHD.7.1.Atmos-FGT
  • Language                                 : Polish
  • Service kind                             : Complete Main
  • Default                                  : No
  • Forced                                   : No
  • Audio #8
  • ID                                       : 9
  • Format                                   : AC-3
  • Format/Info                              : Audio Coding 3
  • Commercial name                          : Dolby Digital
  • Codec ID                                 : A_AC3
  • Duration                                 : 2 h 15 min
  • Bit rate mode                            : Constant
  • Bit rate                                 : 192 kb/s
  • Channel(s)                               : 2 channels
  • Channel layout                           : L R
  • Sampling rate                            : 48.0 kHz
  • Frame rate                               : 31.250 FPS (1536 SPF)
  • Bit depth                                : 16 bits
  • Compression mode                         : Lossy
  • Stream size                              : 187 MiB (1%)
  • Title                                    : Fast.and.Furious.Presents.Hobbs.and.Shaw.2019.1080p.3D.BluRay.Half-SBS.x264.TrueHD.7.1.Atmos-FGT
  • Language                                 : French
  • Service kind                             : Complete Main
  • Default                                  : No
  • Forced                                   : No; b6 B6 K0 Z1 d1 _

/ `2 X! a$ o) y" k4 `. X, o( r- n( P3 n- D4 k

1 J& r1 X4 w7 H' {! Y5 _5 i5 D1 \* i- g4 ]2 u4 Z
精彩剧照7 N+ j" i+ |0 R% a
2 W# G7 M2 S' C/ _6 A  `

  Y8 n- @0 d4 s" Z 速度与激情:特别行动 Fast.and.Furious.Presents.Hobbs.and.Shaw.2019.1080p.3D 杜比全景声  多版本注意区分-1.png 速度与激情:特别行动 Fast.and.Furious.Presents.Hobbs.and.Shaw.2019.1080p.3D 杜比全景声  多版本注意区分-2.png 速度与激情:特别行动 Fast.and.Furious.Presents.Hobbs.and.Shaw.2019.1080p.3D 杜比全景声  多版本注意区分-3.png
$ o8 F6 v8 F. h1 s  x
' O$ {1 \- Y" }+ ^$ z  Q0 z7 s: P6 W4 C/ a

9 K8 l& S7 j/ G) b% v  A; b" q
/ H; w# c' J( v0 P, v8 R0 u. K" O4 {! k! p
蓝光高清网提示您  点击下方附件名称  马上开始下载
4 Q) a/ N- a4 R" r0 V
4 x2 U8 ^  y& s* P% \6 {3 j

6 |- y* r; p5 o+ Y) a# W多版本下载时请注意区分* F! X5 w" E0 R, i

6 U% e: R0 \* T2 {
, |5 p/ v; n4 u1 [& ?' U. ~* R6 @速度与激情:特别行动 Fast.and.Furious.Presents.Hobbs.and.Shaw.2019.1080p.3D.BluRay.Half-SBS.x264.TrueHD.7.1.Atmos-FGT 21.98GB* w1 J1 v) F9 A3 G; m
Fast.and.Furious.Presents.Hobbs.and.Shaw.2019.1080p.3D.BluRay.Half-SBS.x264.True.torrent 
         (55.57 KB    阅读权限: 20)
加入蓝光高清网VIP会员  无限制下载本站所有资源---点这里

资源下载、资源播放、字幕使用、无法下载等常见问题---点这里
回复

使用道具 举报

精彩评论16

wangfeide4k 发表于 2019-11-23 21:05:27 | 显示全部楼层
3333333333333333
回复

使用道具 举报

danya 发表于 2019-11-30 01:08:15 | 显示全部楼层
3D版的时长和2D版的不一样,国语配音暂时还没有。
回复

使用道具 举报

aj53210676 发表于 2019-12-15 09:37:51 | 显示全部楼层
谢谢分享
) A6 T: F( [5 g- L
回复

使用道具 举报

hyf63354554 发表于 2019-12-18 09:52:43 | 显示全部楼层

( x1 d( Q! P: d蓝光高清网是个好地方
回复

使用道具 举报

qqBJM2013 发表于 2019-12-31 18:53:58 | 显示全部楼层
9 y1 ]  f0 t0 @. t+ U
好电影 谢谢楼主分享
回复

使用道具 举报

qqBJM2013 发表于 2020-1-9 17:46:51 | 显示全部楼层

2 V8 K" ?# W1 I% ]7 Z) B7 D楼主,大恩不言谢了!
回复

使用道具 举报

qqBJM2013 发表于 2020-1-13 17:04:31 | 显示全部楼层
2 [1 O6 }# A" X9 s6 g* f" S
楼主幸苦了
回复

使用道具 举报

kanlyter 发表于 2020-1-25 22:32:10 | 显示全部楼层

" s6 D1 P& T0 c好网站 希望越来越好
回复

使用道具 举报

dragondd 发表于 2020-2-13 20:43:23 | 显示全部楼层

' H7 O9 r5 _7 d! d祝蓝光高清网的工作人员新年快乐,感谢好4K提供的优质资源,希望网站越办越好。
回复

使用道具 举报

您需要登录后才可以回帖 登录 | 立即注册

本版积分规则

关注0

粉丝1

帖子83612

发布主题
最新电影 论坛
本期活动
联系我们
点击这里联系客服

服务时间:
周一到周日8:00-23:30

  • 打开微信扫一扫
    关注公众号

  • 手机QQ扫一扫
    添加客服

手机版蓝光高清网 |网站地图

Powered by Discuz! X3.4  © 2001-2013 Comsenz Inc.