[喜剧片] 蠢蛋搞怪秀2 Jackass.Number.Two.2006.1080p.AMZN.WEBRip.DDP5.1.x264-monkee 9.07GB

[复制链接]
蓝鸟VIP会员 永久VIP 发表于 2019-11-20 09:57:10 | 显示全部楼层 |阅读模式 打印 上一主题 下一主题

马上注册,轻松下载,海量资源,让你轻松玩转社区。

您需要 登录 才可以下载或查看,没有帐号?立即注册

x


译  名 蠢蛋搞怪秀2 / Jackass 2 / 无厘取闹(台) / 蠢货:电影版2
片  名 Jackass Number Two
年  代 2006
产  地 美国
类  别 喜剧
语  言 英语
上映日期 2006-09-22
IMDb评分  7.0/10 from 63744 users
IMDb链接  https://www.imdb.com/title/tt0493430
豆瓣评分 7.9/10 from 7238 users
豆瓣链接 https://movie.douban.com/subject/1789292/
片  长 92 分钟
导  演 Jeff Tremaine
编  剧 Jeff Tremaine / Spike Jonze / Johnny Knoxville / Preston Lacy
主  演 Johnny Knoxville
       Bam Margera
       Steve-O
       Chris Pontius
       Ryan Dunn
       Jason Acu?a
       reston Lacy
       Tony Hawk
       Jeff Tremaine
       Spike Jonze
       John Waters
       Luke Wilson
       Mike Judge


标  签 恶搞 | 美国 | jackass | 真人秀 | 喜剧 | 美国电影 | 2006 | 搞笑

简  介  

  暌违四年,疯狂恶作剧的爱好者们再度回归,继续诠释自毁式恶作剧的精髓。本纪录片倾情奉献来自恶作剧先进国家的成功经验。连环计:先向车里灌入蜂群再用滑珠迎接逃出来的车中人;顺手牵羊计:帮助公马自慰,得到的液体不好浪费,喝掉了事;偷梁换柱计:把鱼钩从脸上穿过,用人当鱼饵钓鲨鱼;假痴不癫计:化装成老年人各种戏弄无辜路人;打草惊蛇计:把蟒蛇藏在海洋球中与之肉搏;美人计:在粉丝情书后面安装了机关拳头来一个打一个;声东击西计:扑克牌结合电椅,令受害人完全不知痛感因何而来;最终大计瞒天过海:假恐怖分子遭遇假出租车司机,整人反被整……当然我们的恶作剧英雄们依然彪悍,血肉之躯对抗公牛、玻璃、铁夹、防暴武器、水蛭、铁耙,看的连你也肉疼!


该资源信息参数
  1. Video
  2. ID                                       : 1
  3. Format                                   : AVC
  4. Format/Info                              : Advanced Video Codec
  5. Format profile                           : High@L4
  6. Format settings                          : CABAC / 4 Ref Frames
  7. Format settings, CABAC                   : Yes
  8. Format settings, Reference frames        : 4 frames
  9. Codec ID                                 : V_MPEG4/ISO/AVC
  10. Duration                                 : 1 h 31 min
  11. Bit rate mode                            : Variable
  12. Bit rate                                 : 13.5 Mb/s
  13. Maximum bit rate                         : 15.0 Mb/s
  14. Width                                    : 1 920 pixels
  15. Height                                   : 1 080 pixels
  16. Display aspect ratio                     : 16:9
  17. Frame rate mode                          : Constant
  18. Frame rate                               : 23.976 (24000/1001) FPS
  19. Color space                              : YUV
  20. Chroma subsampling                       : 4:2:0
  21. Bit depth                                : 8 bits
  22. Scan type                                : Progressive
  23. Bits/(Pixel*Frame)                       : 0.271
  24. Stream size                              : 8.66 GiB (95%)
  25. Default                                  : Yes
  26. Forced                                   : No
  27. Color range                              : Limited
  28. Color primaries                          : BT.709
  29. Transfer characteristics                 : BT.709
  30. Matrix coefficients                      : BT.709

  31. Audio
  32. ID                                       : 2
  33. Format                                   : E-AC-3
  34. Format/Info                              : Enhanced AC-3
  35. Commercial name                          : Dolby Digital Plus
  36. Codec ID                                 : A_EAC3
  37. Duration                                 : 1 h 31 min
  38. Bit rate mode                            : Constant
  39. Bit rate                                 : 640 kb/s
  40. Channel(s)                               : 6 channels
  41. Channel layout                           : L R C LFE Ls Rs
  42. Sampling rate                            : 48.0 kHz
  43. Frame rate                               : 31.250 FPS (1536 SPF)
  44. Compression mode                         : Lossy
  45. Stream size                              : 421 MiB (5%)
  46. Language                                 : English
  47. Service kind                             : Complete Main
  48. Default                                  : Yes
  49. Forced                                   : No

  50. Text
  51. ID                                       : 3
  52. Format                                   : UTF-8
  53. Codec ID                                 : S_TEXT/UTF8
  54. Codec ID/Info                            : UTF-8 Plain Text
  55. Duration                                 : 1 h 28 min
  56. Bit rate                                 : 62 b/s
  57. Count of elements                        : 1239
  58. Stream size                              : 40.4 KiB (0%)
  59. Language                                 : English
  60. Default                                  : No
  61. Forced                                   : No
复制代码


精彩剧照




蓝光高清网提示您 点击下方附件名称 马上开始下载



温馨提示:
本站资源优先使用迅雷下载,迅雷会员下载,速度基本可以跑满宽带
如果遇到无资源或者版权问题无法下载,推荐使用115网盘离线下载(点击查看115网盘离线下载教程


  • 该资源需要您回复以后 刷新网页进行下载操作

  • 1、Jackass.Number.Two.2006.1080p.AMZN.WEBRip.DDP5.1.x264-monkee.torrent 91KB 已下载 0 次

加入蓝光高清网VIP会员  无限制下载本站所有资源---点此加入

资源下载、资源播放、字幕使用、无法下载等常见问题---点这里

回复

使用道具 举报

精彩评论1

藸藸 发表于 2019-11-20 10:03:23 | 显示全部楼层
不错不错,楼主您辛苦了。。。

加入蓝光高清网VIP会员  无限制下载本站所有资源---点此加入

资源下载、资源播放、字幕使用、无法下载等常见问题---点这里

回复

使用道具 举报

懒得打字嘛,点击右侧快捷回复
高级模式
B Color Image Link Quote Code Smilies 上传

本版积分规则

关注0

粉丝0

帖子69462

发布主题
最新电影 论坛
本期活动
联系我们
点击这里联系客服

服务时间:
周一到周日8:00-23:30

  • 打开微信扫一扫
    关注公众号

  • 手机QQ扫一扫
    添加客服

Archiver手机版蓝光高清网 ( 渝ICP备18006373号-2 )|网站地图

Powered by Discuz! X3.4  © 2001-2013 Comsenz Inc.