[喜剧片] 寻爱旅程/哈啦上船 Boat.Trip.2002.UNRATED.1080p.AMZN.WEBRip.DD2.0.x264-FGT 9.85GB

[复制链接]
蓝鸟VIP会员 永久VIP 发表于 2019-11-20 09:58:01 | 显示全部楼层 |阅读模式 打印 上一主题 下一主题

马上注册,轻松下载,海量资源,让你轻松玩转社区。

您需要 登录 才可以下载或查看,没有帐号?立即注册

x


译  名 寻爱旅程 / 哈啦上船 / 船旅假期
片  名 Boat Trip
年  代 2002
产  地 德国 / 美国
类  别 喜剧
语  言 英语 / 瑞典语 / 西班牙语
上映日期 2002-10-04
IMDb评分  4.9/10 from 29006 users
IMDb链接  http://www.imdb.com/title/tt0285462
豆瓣评分 5.1/10 from 851 users
豆瓣链接 https://movie.douban.com/subject/1304861/
片  长 94 分钟
导  演 Mort Nathan
编  剧 Mort Nathan / William Bigelow
主  演 Cuba Gooding Jr.
      Vivica A. Fox
      Roger Moore
      Roselyn Sanchez
      Maurice Godin


标  签 美国 | 喜劇 | 喜剧 | 搞笑 | 2002 | 求愛 | 美国电影 | 电影

简  介  

  为了安慰刚刚惨遭女友抛弃的朋友杰瑞(小库珀·古丁 Cuba Gooding Jr. 饰),尼克(霍拉提奥·桑斯 Horatio Sanz 饰)陪伴着杰瑞登上了前往地中海的邮轮,尼克将希望寄托在了船上的旅客身上,希望从中找到能够安抚杰瑞情商的人。
令伙伴两人没有想到的是,这条船上搭载的竟然一帮同性恋者,在旅途中,杰瑞和尼克似乎还颇受欢迎的样子。幸运的是,途中,两位好友偶遇了一帮瑞典女子游泳队员,其中,一个名叫加布里拉(罗塞莉·桑切斯 Roselyn Sanchez 饰)的漂亮姑娘吸引了杰瑞的注意,而尼克亦遇见了自己的梦中情人。糟糕的是,加布里拉误认为杰瑞和船上的其他男人一样是同性恋者,而游泳队的教练也下达了交际禁令,禁止姑娘们和男人调情。



该资源信息参数
  1. Video
  2. ID                                       : 1
  3. Format                                   : AVC
  4. Format/Info                              : Advanced Video Codec
  5. Format profile                           : High@L4
  6. Format settings                          : CABAC / 4 Ref Frames
  7. Format settings, CABAC                   : Yes
  8. Format settings, Reference frames        : 4 frames
  9. Codec ID                                 : V_MPEG4/ISO/AVC
  10. Duration                                 : 1 h 37 min
  11. Bit rate mode                            : Variable
  12. Bit rate                                 : 13.9 Mb/s
  13. Maximum bit rate                         : 15.0 Mb/s
  14. Width                                    : 1 920 pixels
  15. Height                                   : 1 080 pixels
  16. Display aspect ratio                     : 16:9
  17. Frame rate mode                          : Constant
  18. Frame rate                               : 23.976 (24000/1001) FPS
  19. Color space                              : YUV
  20. Chroma subsampling                       : 4:2:0
  21. Bit depth                                : 8 bits
  22. Scan type                                : Progressive
  23. Bits/(Pixel*Frame)                       : 0.279
  24. Stream size                              : 9.40 GiB (95%)
  25. Writing library                          : x264 core 148 r2623 d5b2374
  26. Encoding settings                        : cabac=1 / ref=4 / deblock=1:-1:-1 / analyse=0x3:0x133 / me=umh / subme=9 / psy=1 / psy_rd=1.00:0.15 / mixed_ref=1 / me_range=24 / chroma_me=1 / trellis=2 / 8x8dct=1 / cqm=0 / deadzone=21,11 / fast_pskip=1 / chroma_qp_offset=-3 / threads=34 / lookahead_threads=5 / sliced_threads=0 / nr=150 / decimate=1 / interlaced=0 / bluray_compat=0 / constrained_intra=0 / bframes=8 / b_pyramid=2 / b_adapt=2 / b_bias=0 / direct=3 / weightb=1 / open_gop=0 / weightp=2 / keyint=120 / keyint_min=61 / scenecut=0 / intra_refresh=0 / rc_lookahead=120 / rc=crf / mbtree=1 / crf=18.0 / qcomp=0.60 / qpmin=0 / qpmax=69 / qpstep=4 / vbv_maxrate=15000 / vbv_bufsize=31250 / crf_max=0.0 / nal_hrd=vbr / filler=0 / ip_ratio=1.40 / aq=3:1.00
  27. Language                                 : English
  28. Default                                  : Yes
  29. Forced                                   : No
  30. Color range                              : Limited
  31. Color primaries                          : BT.709
  32. Transfer characteristics                 : BT.709
  33. Matrix coefficients                      : BT.709

  34. Audio
  35. ID                                       : 2
  36. Format                                   : AC-3
  37. Format/Info                              : Audio Coding 3
  38. Commercial name                          : Dolby Digital
  39. Codec ID                                 : A_AC3
  40. Duration                                 : 1 h 37 min
  41. Bit rate mode                            : Constant
  42. Bit rate                                 : 384 kb/s
  43. Channel(s)                               : 6 channels
  44. Channel layout                           : L R C LFE Ls Rs
  45. Sampling rate                            : 48.0 kHz
  46. Frame rate                               : 31.250 FPS (1536 SPF)
  47. Bit depth                                : 16 bits
  48. Compression mode                         : Lossy
  49. Stream size                              : 267 MiB (3%)
  50. Language                                 : English
  51. Service kind                             : Complete Main
  52. Default                                  : Yes
  53. Forced                                   : No

  54. Text
  55. ID                                       : 3
  56. Format                                   : UTF-8
  57. Codec ID                                 : S_TEXT/UTF8
  58. Codec ID/Info                            : UTF-8 Plain Text
  59. Language                                 : English
  60. Default                                  : Yes
  61. Forced                                   : No

  62. Menu
  63. 00:00:00.000                             : en:Chapter 1
  64. 00:01:44.000                             : en:Chapter 2
  65. 00:09:27.000                             : en:Chapter 3
  66. 00:18:51.000                             : en:Chapter 4
  67. 00:25:41.000                             : en:Chapter 5
  68. 00:33:57.000                             : en:Chapter 6
  69. 00:41:23.000                             : en:Chapter 7
  70. 00:51:00.000                             : en:Chapter 8
  71. 01:00:44.000                             : en:Chapter 9
  72. 01:11:36.000                             : en:Chapter 10
  73. 01:20:15.000                             : en:Chapter 11
  74. 01:27:38.000                             : en:Chapter 12
  75. 01:32:56.000                             : en:Chapter 13
复制代码


精彩剧照




蓝光高清网提示您 点击下方附件名称 马上开始下载



温馨提示:
本站资源优先使用迅雷下载,迅雷会员下载,速度基本可以跑满宽带
如果遇到无资源或者版权问题无法下载,推荐使用115网盘离线下载(点击查看115网盘离线下载教程


  • 该资源需要您回复以后 刷新网页进行下载操作

  • 1、Boat.Trip.2002.UNRATED.1080p.AMZN.WEBRip.DD2.0.x264-FGT.torrent 99KB 已下载 0 次

加入蓝光高清网VIP会员  无限制下载本站所有资源---点此加入

资源下载、资源播放、字幕使用、无法下载等常见问题---点这里

回复

使用道具 举报

懒得打字嘛,点击右侧快捷回复
高级模式
B Color Image Link Quote Code Smilies 上传

本版积分规则

关注0

粉丝0

帖子69462

发布主题
最新电影 论坛
本期活动
联系我们
点击这里联系客服

服务时间:
周一到周日8:00-23:30

  • 打开微信扫一扫
    关注公众号

  • 手机QQ扫一扫
    添加客服

Archiver手机版蓝光高清网 ( 渝ICP备18006373号-2 )|网站地图

Powered by Discuz! X3.4  © 2001-2013 Comsenz Inc.