[纪录片] 美国硬核 American.Hardcore.2006.1080p.AMZN.WEBRip.DD5.1.x264-QOQ 6.55GB

[复制链接]
蓝鸟VIP会员 永久VIP 发表于 2019-11-20 09:59:41 | 显示全部楼层 |阅读模式 打印 上一主题 下一主题

马上注册,轻松下载,海量资源,让你轻松玩转社区。

您需要 登录 才可以下载或查看,没有帐号?立即注册

x


译  名 美国硬核 / American Hardcore: The History of American Punk Rock 1980 - 1986
片  名 American Hardcore
年  代 2006
产  地 美国
类  别 纪录片 / 音乐
语  言 英语
上映日期 2006-09-22
IMDb评分  7.4/10 from 3135 users
IMDb链接  https://www.imdb.com/title/tt0419434
豆瓣评分 8.1/10 from 494 users
豆瓣链接 https://movie.douban.com/subject/1866097/
片  长 USA: 100 分钟
导  演 Paul Rachman
编  剧 Steven Blush
主  演 Henry Rollins
       Black Flag
       Bad Brains
       Jonathan Anastas
       Lucky Lehrer


标  签 纪录片 | 摇滚 | hardcore | 美国 | 音乐 | 地下 | 记录片 | 美国电影

简  介  

  美国硬核朋克潮流从80年代的地下崛起,暴风骤雨式地狂卷过世界摇滚圈最终在1986年归于没落,虽然无法为这场音乐革命划定起始或终结的标志、狂热的乐迷也无法阻止美国朋克的黄金时代的结束,但无可否认的是这短短六年对美国朋克乃至摇滚音乐的深远意义,与英式朋克截然的粗糙质感和极端的先锋姿态逐渐演化出了90年代美国朋克摇滚独特的风格,它或是分流出或是影响了随后出现的速度金属、硬核金属、Grunge和商业气息更浓厚的流行朋克等流派,也因其纯粹彻底的颠覆和反抗精神滋养了如涅磐、野兽男孩、GREEN DAYS等扬名国际的优秀乐队,并让完全生于地下的朋克音乐逐渐主流化。因为反对里根保守主义而抬头的硬核朋克在六年里发展的不仅仅是一种音乐潮流,它把朋克的反叛精神通过音乐灌输到一代青年行事的准则与方式,并扩大成一次在特殊社会背景下策动的社会运动,对政治、家庭与社会失去信心的青少年在僵硬、粗砺的喊叫声和和弦中或是寻找精神家园或是大肆破坏现实世界,这种铺天盖地的狂躁与兴奋在整个摇滚史上也是不多见的。改编自Steven Blush的同名传记,《美国硬核》正是要追寻那片远去的狂吼,重现朋克精神最本真的理想状态.
  重寻消亡的噪音
  一般说来朋克音乐的源头应从60年代以the Velvet Underground、 the Stooges、New York Dolls等乐队的实验追溯起,朋克音乐因其极为简单的和弦和缺乏考究的旋律而显得更容易模仿和直白,这恰好顺应了当时对保守主义盛行的主流文化颠覆与反抗的趋势,于是本意为肮脏的朋克音乐迅速发展壮大并一度成为一种文化与社会现象的代名词,因此影史上也不乏对这一自由精神象征的温习与歌颂之作,描写朋克代表人物-性手枪灵魂成员-席德的《席德与南茜》和被广大摇滚青年列为教材片的《猜火车》自不必说,BBC制作的记录片《1991:朋克突围之年》记录了90年代初开始显山露水的音速青年和涅磐乐队欧洲巡演的全过程,前者后来成为NO RAVE的领军人一直活跃在噪音摇滚领域,后者成就了Grunge乐派,凭借高速的暴躁、沉重的内核和主音的离奇死亡上演了摇滚史上又一个神话,而《1991:朋克突围之年》恰好是他们一炮而红、朋克音乐走向主流市场前最后一份也是最贴身地记录这些乐队真实的表演、生活状态的影象资料,而事隔十年有余,《美国硬核》的出世完成了对《1991》的注解,也填补了英国之外、主流化之前,朋克运动的一段重要的银幕空白。被斯兰丹斯独立电影节造就的导演Paul Rachman从大学时便开始自己的地下硬核朋克乐队记录片和音乐录象带事业,他和诸多大牌乐队(如Alice in Chains、Kiss)合作并很快成为行业内拔尖的MTV导演,他与本片编剧-也是原作作者- Steven Blush 一样非常了解美国硬核摇滚的兴衰历程以及这场运动在美国摇滚乐史的先驱位置;今年是朋克诞生30周年,在朋克一词虽尤在,朋克精神已不复初衷的环境下,Paul Rachman耗费四年,横跨美国和加拿大、走访纽约、洛杉矶等当年硬核朋克根据地收集资料,展现遍地开花的硬核朋克不同的地域特色下迸发出的相同的爆发力和破坏力,片中还采访黑旗(Black Flag)、肉偶 (Meat Puppets)、坏脑(Bad Brains)等代表乐队的核心人物,重述当年历史。《美国硬核》的影象风格也是如硬核音乐般充满粗糙硌人的颗粒感,缺乏精心、华丽的编排、拍摄手法简朴随性,以求在精神上和内容上与朋克精神达成一致。
  摇滚温床
  追溯硬核朋克的历史便不得不提到SST。黑旗乐队在朋克简单直接的原则上为自己的作品注入了爵士乐、金属、噪音等多种风格,创造出更具有实验和哲理意味的气质,既而成为地下硬核乐队的先锋。在1981年因为不满东家“UNICORN”以“内容粗俗危险”为由禁止发行新专辑《Damage》,黑旗独自成立了SST厂牌发行这张专辑,并不顾“UNICORN”的一再封杀,大肆发行地下专辑促成了黑旗和SST的空前成功,黑旗解散后SST专心于运营和发展,随之招致了如Husker Du、肉偶 (Meat Puppets)、世袭 (Descendents)、Minutemen(民兵)、坏脑 (Bad Brains)、音响花园 (Soundgarden)、音速青年 (Sonic Youth)等大批出色的硬核乐队(也是出现在《美国硬核》中的灵魂人物),可以说SST的发家史代表了硬核朋克的辉煌历程,而其式微是硬核朋克在摇滚舞台上声嘶力竭的尾声,而二者最一致之处便是以最无所忌惮的态度包容了年轻一代的反抗和实验精神,造就了更多样化的摇滚风!


该资源信息参数
  1. Video
  2. ID                                       : 1
  3. Format                                   : AVC
  4. Format/Info                              : Advanced Video Codec
  5. Format profile                           : High@L4
  6. Format settings                          : CABAC / 4 Ref Frames
  7. Format settings, CABAC                   : Yes
  8. Format settings, Reference frames        : 4 frames
  9. Codec ID                                 : V_MPEG4/ISO/AVC
  10. Duration                                 : 1 h 40 min
  11. Bit rate                                 : 8 708 kb/s
  12. Width                                    : 1 920 pixels
  13. Height                                   : 1 080 pixels
  14. Display aspect ratio                     : 16:9
  15. Frame rate mode                          : Constant
  16. Frame rate                               : 23.976 (24000/1001) FPS
  17. Color space                              : YUV
  18. Chroma subsampling                       : 4:2:0
  19. Bit depth                                : 8 bits
  20. Scan type                                : Progressive
  21. Bits/(Pixel*Frame)                       : 0.175
  22. Stream size                              : 6.10 GiB (93%)
  23. Default                                  : Yes
  24. Forced                                   : No
  25. Color range                              : Limited
  26. Color primaries                          : BT.709
  27. Transfer characteristics                 : BT.709
  28. Matrix coefficients                      : BT.709

  29. Audio
  30. ID                                       : 2
  31. Format                                   : E-AC-3
  32. Format/Info                              : Enhanced AC-3
  33. Commercial name                          : Dolby Digital Plus
  34. Codec ID                                 : A_EAC3
  35. Duration                                 : 1 h 40 min
  36. Bit rate mode                            : Constant
  37. Bit rate                                 : 640 kb/s
  38. Channel(s)                               : 6 channels
  39. Channel layout                           : L R C LFE Ls Rs
  40. Sampling rate                            : 48.0 kHz
  41. Frame rate                               : 31.250 FPS (1536 SPF)
  42. Compression mode                         : Lossy
  43. Stream size                              : 459 MiB (7%)
  44. Language                                 : English
  45. Service kind                             : Complete Main
  46. Default                                  : Yes
  47. Forced                                   : No

  48. Text
  49. ID                                       : 3
  50. Format                                   : UTF-8
  51. Codec ID                                 : S_TEXT/UTF8
  52. Codec ID/Info                            : UTF-8 Plain Text
  53. Duration                                 : 1 h 39 min
  54. Bit rate                                 : 106 b/s
  55. Count of elements                        : 1631
  56. Stream size                              : 77.3 KiB (0%)
  57. Title                                    : SDH
  58. Language                                 : English
  59. Default                                  : No
  60. Forced                                   : No
复制代码


精彩剧照




蓝光高清网提示您 点击下方附件名称 马上开始下载



温馨提示:
本站资源优先使用迅雷下载,迅雷会员下载,速度基本可以跑满宽带
如果遇到无资源或者版权问题无法下载,推荐使用115网盘离线下载(点击查看115网盘离线下载教程


  • 该资源需要您回复以后 刷新网页进行下载操作

  • 1、American.Hardcore.2006.1080p.AMZN.WEBRip.DD5.1.x264-QOQ.torrent 66KB 已下载 0 次

加入蓝光高清网VIP会员  无限制下载本站所有资源---点此加入

资源下载、资源播放、字幕使用、无法下载等常见问题---点这里

回复

使用道具 举报

懒得打字嘛,点击右侧快捷回复
高级模式
B Color Image Link Quote Code Smilies 上传

本版积分规则

关注0

粉丝0

帖子69462

发布主题
最新电影 论坛
本期活动
联系我们
点击这里联系客服

服务时间:
周一到周日8:00-23:30

  • 打开微信扫一扫
    关注公众号

  • 手机QQ扫一扫
    添加客服

Archiver手机版蓝光高清网 ( 渝ICP备18006373号-2 )|网站地图

Powered by Discuz! X3.4  © 2001-2013 Comsenz Inc.