[惊悚片] 惊天追踪 A.Mothers.Revenge.2016.1080p.AMZN.WEBRip.DDP5.1.x264-ABM 4.54GB

[复制链接]
蓝鸟 发表于 2019-11-20 10:00:31 | 显示全部楼层 |阅读模式 打印 上一主题 下一主题


译  名 惊天追踪
片  名 Accidental Switch
年  代 2016
产  地 美国
类  别 剧情 / 惊悚
语  言 英语
上映日期 2016-05-08(美国)
IMDb评分  4.8/10 from 314 users
IMDb链接  https://www.imdb.com/title/tt5492054
豆瓣评分 0/10 from 0 users
豆瓣链接 https://movie.douban.com/subject/26891363/
片  长 85分钟
导  演 弗雷德·奥伦 Fred Olen Ray
编  剧 弗雷德·奥伦 Fred Olen Ray
主  演 杰米·露娜 Jamie Luner
       史蒂文·布兰德 Steven Brand
       Audrey Whitby


标  签 美国 | 2016

简  介  

  Jennifer quickly grabs a black suitcase off the airport luggage carousel. She later discovers she"s grabbed the wrong bag. Soon a man calls claiming he will harm her daughter if she doesn"t follow his instructions and return his baggage.


该资源信息参数
  1. Video
  2. ID                                       : 1
  3. Format                                   : AVC
  4. Format/Info                              : Advanced Video Codec
  5. Format profile                           : High@L4
  6. Format settings                          : CABAC / 4 Ref Frames
  7. Format settings, CABAC                   : Yes
  8. Format settings, Reference frames        : 4 frames
  9. Codec ID                                 : V_MPEG4/ISO/AVC
  10. Duration                                 : 1 h 25 min
  11. Bit rate mode                            : Variable
  12. Bit rate                                 : 6 858 kb/s
  13. Maximum bit rate                         : 15.0 Mb/s
  14. Width                                    : 1 920 pixels
  15. Height                                   : 1 080 pixels
  16. Display aspect ratio                     : 16:9
  17. Frame rate mode                          : Constant
  18. Frame rate                               : 23.976 (24000/1001) FPS
  19. Color space                              : YUV
  20. Chroma subsampling                       : 4:2:0
  21. Bit depth                                : 8 bits
  22. Scan type                                : Progressive
  23. Bits/(Pixel*Frame)                       : 0.138
  24. Stream size                              : 4.07 GiB (90%)
  25. Language                                 : English
  26. Default                                  : Yes
  27. Forced                                   : No
  28. Color range                              : Limited
  29. Color primaries                          : BT.709
  30. Transfer characteristics                 : BT.709
  31. Matrix coefficients                      : BT.709

  32. Audio
  33. ID                                       : 2
  34. Format                                   : E-AC-3
  35. Format/Info                              : Enhanced AC-3
  36. Commercial name                          : Dolby Digital Plus
  37. Codec ID                                 : A_EAC3
  38. Duration                                 : 1 h 25 min
  39. Bit rate mode                            : Constant
  40. Bit rate                                 : 640 kb/s
  41. Channel(s)                               : 6 channels
  42. Channel layout                           : L R C LFE Ls Rs
  43. Sampling rate                            : 48.0 kHz
  44. Frame rate                               : 31.250 FPS (1536 SPF)
  45. Compression mode                         : Lossy
  46. Stream size                              : 389 MiB (8%)
  47. Language                                 : English
  48. Service kind                             : Complete Main
  49. Default                                  : Yes
  50. Forced                                   : No

  51. Text #1
  52. ID                                       : 3
  53. Format                                   : UTF-8
  54. Codec ID                                 : S_TEXT/UTF8
  55. Codec ID/Info                            : UTF-8 Plain Text
  56. Language                                 : English
  57. Default                                  : No
  58. Forced                                   : No

  59. Text #2
  60. ID                                       : 4
  61. Format                                   : UTF-8
  62. Codec ID                                 : S_TEXT/UTF8
  63. Codec ID/Info                            : UTF-8 Plain Text
  64. Title                                    : SDH
  65. Language                                 : English
  66. Default                                  : No
  67. Forced                                   : No
复制代码


精彩剧照

惊天追踪 A.Mothers.Revenge.2016.1080p.AMZN.WEBRip.DDP5.1.x264-ABM 4.54GB-2.png 惊天追踪 A.Mothers.Revenge.2016.1080p.AMZN.WEBRip.DDP5.1.x264-ABM 4.54GB-3.png 惊天追踪 A.Mothers.Revenge.2016.1080p.AMZN.WEBRip.DDP5.1.x264-ABM 4.54GB-4.png


蓝光高清网提示您 点击下方附件名称 马上开始下载

A.Mothers.Revenge.2016.1080p.AMZN.WEBRip.DDP5.1.x264-ABM.torrent 
         (91.43 KB    阅读权限: 0)
加入蓝光高清网VIP会员  无限制下载本站所有资源---点这里

资源下载、资源播放、字幕使用、无法下载等常见问题---点这里
回复

使用道具 举报

精彩评论1

NLNQqwyU 发表于 2019-11-20 10:08:31 | 显示全部楼层
希望蓝光高清网越来越好
回复

使用道具 举报

您需要登录后才可以回帖 登录 | 立即注册

本版积分规则

关注0

粉丝1

帖子83749

发布主题
最新电影 论坛
本期活动
联系我们
点击这里联系客服

服务时间:
周一到周日8:00-23:30

  • 打开微信扫一扫
    关注公众号

  • 手机QQ扫一扫
    添加客服

手机版蓝光高清网 |网站地图

Powered by Discuz! X3.4  © 2001-2013 Comsenz Inc.