[剧情片] 亡命之计/天雷地火 Desperate.Measures.1998.1080p.WEBRip.x264-RARBG 1.92GB

[复制链接]
蓝鸟VIP会员 永久VIP 发表于 2019-11-20 10:02:11 | 显示全部楼层 |阅读模式 打印 上一主题 下一主题

马上注册,轻松下载,海量资源,让你轻松玩转社区。

您需要 登录 才可以下载或查看,没有帐号?立即注册

x


译  名 亡命之计 / 天雷地火 / 绝处逢生 / 绝点对抗
片  名 Desperate Measures
年  代 1998
产  地 美国
类  别 剧情 / 动作 / 犯罪
语  言 英语
上映日期 1998-01-30
IMDb评分  6.1/10 from 15231 users
IMDb链接  https://www.imdb.com/title/tt0118966
豆瓣评分 6.5/10 from 1188 users
豆瓣链接 https://movie.douban.com/subject/1293108/
片  长 100分钟
导  演 Barbet Schroeder
编  剧 David Klass
主  演 Michael Keaton
       Andy Garcia
       Brian Cox


标  签 动作 | 犯罪 | 美国 | 美国电影 | AndyGarcia | MichaelKeaton | 智力 | 电影

简  介  

  旧金山警探弗兰克·康纳(安迪·加西亚 Andy Garcia 饰)正在疯狂地寻找与儿子骨髓相吻合的人,生命垂危的儿子因患白血病而急需骨髓移植。几经周折,弗兰克终于找到了合适的配型,然而这位相吻合的人居然是杀人犯彼得·麦凯布(迈克尔·基顿 Michael Keaton 饰)。起初断然拒绝的麦凯布,在见到弗兰克儿子之后居然很快答应了下来。
  就在手术当天,弗兰克的上司卡西迪(布莱恩·考克斯 Brian Cox 饰)亲临现场监督。然而就在手术开始的一刹那,预谋已久的麦凯布居然从手术台上一跃而起,将弗兰克的儿子挟持作为人质。为了儿子的一线生机,弗兰克说服了卡西迪,单独进入病房与麦凯布交涉。然而事态并非像想象中简单,为求逃脱的麦凯布走投无路下劫持了一辆汽车,逃之夭夭。


该资源信息参数
  1. Video
  2. ID                                       : 1
  3. Format                                   : AVC
  4. Format/Info                              : Advanced Video Codec
  5. Format profile                           : High@L4
  6. Format settings                          : CABAC / 4 Ref Frames
  7. Format settings, CABAC                   : Yes
  8. Format settings, Reference frames        : 4 frames
  9. Codec ID                                 : avc1
  10. Codec ID/Info                            : Advanced Video Coding
  11. Duration                                 : 1 h 40 min
  12. Bit rate                                 : 2 500 kb/s
  13. Width                                    : 1 920 pixels
  14. Height                                   : 1 080 pixels
  15. Display aspect ratio                     : 16:9
  16. Frame rate mode                          : Constant
  17. Frame rate                               : 23.976 (23976/1000) FPS
  18. Color space                              : YUV
  19. Chroma subsampling                       : 4:2:0
  20. Bit depth                                : 8 bits
  21. Scan type                                : Progressive
  22. Bits/(Pixel*Frame)                       : 0.050
  23. Stream size                              : 1.76 GiB (92%)
  24. Writing library                          : x264 core 152 r2851M ba24899
  25. Encoding settings                        : cabac=1 / ref=4 / deblock=1:-1:-1 / analyse=0x3:0x113 / me=umh / subme=9 / psy=1 / psy_rd=1.00:0.15 / mixed_ref=1 / me_range=24 / chroma_me=1 / trellis=2 / 8x8dct=1 / cqm=0 / deadzone=21,11 / fast_pskip=1 / chroma_qp_offset=-3 / threads=16 / lookahead_threads=4 / sliced_threads=0 / nr=0 / decimate=1 / interlaced=0 / bluray_compat=0 / constrained_intra=0 / bframes=3 / b_pyramid=2 / b_adapt=2 / b_bias=0 / direct=3 / weightb=1 / open_gop=0 / weightp=2 / keyint=250 / keyint_min=25 / scenecut=40 / intra_refresh=0 / rc_lookahead=50 / rc=2pass / mbtree=1 / bitrate=2500 / ratetol=1.0 / qcomp=0.60 / qpmin=0 / qpmax=69 / qpstep=4 / cplxblur=20.0 / qblur=0.5 / vbv_maxrate=31250 / vbv_bufsize=31250 / nal_hrd=none / filler=0 / ip_ratio=1.40 / aq=3:1.00
  26. Encoded date                             : UTC 2019-11-17 18:29:53
  27. Tagged date                              : UTC 2019-11-17 18:29:53
  28. Codec configuration box                  : avcC

  29. Audio
  30. ID                                       : 2
  31. Format                                   : AAC LC
  32. Format/Info                              : Advanced Audio Codec Low Complexity
  33. Codec ID                                 : mp4a-40-2
  34. Duration                                 : 1 h 40 min
  35. Bit rate mode                            : Constant
  36. Bit rate                                 : 224 kb/s
  37. Channel(s)                               : 2 channels
  38. Channel layout                           : L R
  39. Sampling rate                            : 48.0 kHz
  40. Frame rate                               : 46.875 FPS (1024 SPF)
  41. Compression mode                         : Lossy
  42. Stream size                              : 162 MiB (8%)
  43. Language                                 : English
  44. Default                                  : Yes
  45. Alternate group                          : 1
  46. Encoded date                             : UTC 2019-11-17 18:29:53
  47. Tagged date                              : UTC 2019-11-17 18:29:53
复制代码


精彩剧照




蓝光高清网提示您 点击下方附件名称 马上开始下载



温馨提示:
本站资源优先使用迅雷下载,迅雷会员下载,速度基本可以跑满宽带
如果遇到无资源或者版权问题无法下载,推荐使用115网盘离线下载(点击查看115网盘离线下载教程


  • 该资源需要您回复以后 刷新网页进行下载操作

  • 1、Desperate.Measures.1998.1080p.WEBRip.x264-RARBG.torrent 20KB 已下载 0 次

加入蓝光高清网VIP会员  无限制下载本站所有资源---点此加入

资源下载、资源播放、字幕使用、无法下载等常见问题---点这里

回复

使用道具 举报

懒得打字嘛,点击右侧快捷回复
高级模式
B Color Image Link Quote Code Smilies 上传

本版积分规则

关注0

粉丝0

帖子69462

发布主题
最新电影 论坛
本期活动
联系我们
点击这里联系客服

服务时间:
周一到周日8:00-23:30

  • 打开微信扫一扫
    关注公众号

  • 手机QQ扫一扫
    添加客服

Archiver手机版蓝光高清网 ( 渝ICP备18006373号-2 )|网站地图

Powered by Discuz! X3.4  © 2001-2013 Comsenz Inc.