[剧情片] 爱在春天来临/春天是美好的 Love.Comes.Softly.2010.1080p.AMZN.WEBRip.DD2.0.x264-QOQ 8.46GB

[复制链接]
蓝鸟VIP会员 永久VIP 发表于 2019-11-20 10:03:02 | 显示全部楼层 |阅读模式 打印 上一主题 下一主题

马上注册,轻松下载,海量资源,让你轻松玩转社区。

您需要 登录 才可以下载或查看,没有帐号?立即注册

x


译  名 爱在春天来临 / 春天是美好的 / 爱之蔓延时 / 爱在春天来临时
片  名 Love Comes Softly
年  代 2003
产  地 美国
类  别 剧情 / 爱情 / 西部
语  言 英语
上映日期 2003-04-13
IMDb评分  7.4/10 from 5516 users
IMDb链接  https://www.imdb.com/title/tt0345591
豆瓣评分 8.0/10 from 1978 users
豆瓣链接 https://movie.douban.com/subject/1418157/
片  长 88分钟
导  演 小迈克尔·兰登 Michael Landon Jr.
编  剧 Cindy Kelley / 小迈克尔·兰登 Michael Landon Jr. / Janette Oke
主  演 凯瑟琳·海格尔 Katherine Heigl
       戴尔·米德基夫 Dale Midkiff
       丝凯·麦柯·巴楚沙 Skye McCole Bartusiak
       柯宾·伯恩森 Corbin Bernsen
       泰莉莎·拉塞尔 Theresa Russell
       奥利佛·麦克瑞迪 Oliver Macready
       杰姆·沃尔福特 Jaimz Woolvett
       拉特安亚·阿尔达 Rutanya Alda
       罗根·巴塞洛缪 Logan Bartholomew
       David Fine
       Dani Goldman
       Larry Laverty


标  签 爱情 | 美国 | 美国电影 | 美国西部 | 爱之蔓延时 | 信仰 | 2003 | KatherineHeigl

简  介  

  马蒂(凯瑟琳·海格尔 Katherine Heigl 饰)的恋人在一次意外中失去了生命,怀着恋人的孩子,马蒂不知道今后的生活该何去何从。此时,一个名叫克拉克(戴尔·米德基夫 Dale Midkiff 饰)的男人出现在了马蒂的面前,他以给孩子找个母亲为由向马蒂求婚,并允诺会在来年春天付给马蒂回城的旅费,迫于生计,马蒂答应了。
  幸运的是,克拉克是一位正人君子,他对马蒂以礼相待,绝不做任何非分之举。可是克拉克的女儿却并不像她的父亲那样,对于凭空出现的“母亲”,她产生了强烈的排斥心理。随着时间的流逝,马蒂的温柔和开朗逐渐的化解了她和继女之间的坚冰。暴风雪过后,春天很快就要来到,眼看约定好的离别的日子越来越近,马蒂和克拉克的心中都充满了依依不舍的情怀。


该资源信息参数
  1. Video
  2. ID                                       : 1
  3. Format                                   : AVC
  4. Format/Info                              : Advanced Video Codec
  5. Format profile                           : High@L4
  6. Format settings                          : CABAC / 4 Ref Frames
  7. Format settings, CABAC                   : Yes
  8. Format settings, Reference frames        : 4 frames
  9. Codec ID                                 : V_MPEG4/ISO/AVC
  10. Duration                                 : 1 h 28 min
  11. Bit rate mode                            : Variable
  12. Bit rate                                 : 13.5 Mb/s
  13. Maximum bit rate                         : 15.0 Mb/s
  14. Width                                    : 1 920 pixels
  15. Height                                   : 1 080 pixels
  16. Display aspect ratio                     : 16:9
  17. Frame rate mode                          : Constant
  18. Frame rate                               : 23.976 (24000/1001) FPS
  19. Color space                              : YUV
  20. Chroma subsampling                       : 4:2:0
  21. Bit depth                                : 8 bits
  22. Scan type                                : Progressive
  23. Bits/(Pixel*Frame)                       : 0.272
  24. Stream size                              : 8.32 GiB (98%)
  25. Default                                  : Yes
  26. Forced                                   : No
  27. Color range                              : Limited
  28. Color primaries                          : BT.709
  29. Transfer characteristics                 : BT.709
  30. Matrix coefficients                      : BT.709

  31. Audio
  32. ID                                       : 2
  33. Format                                   : E-AC-3
  34. Format/Info                              : Enhanced AC-3
  35. Commercial name                          : Dolby Digital Plus
  36. Codec ID                                 : A_EAC3
  37. Duration                                 : 1 h 28 min
  38. Bit rate mode                            : Constant
  39. Bit rate                                 : 224 kb/s
  40. Channel(s)                               : 2 channels
  41. Channel layout                           : L R
  42. Sampling rate                            : 48.0 kHz
  43. Frame rate                               : 31.250 FPS (1536 SPF)
  44. Compression mode                         : Lossy
  45. Stream size                              : 141 MiB (2%)
  46. Language                                 : English
  47. Service kind                             : Complete Main
  48. Default                                  : Yes
  49. Forced                                   : No

  50. Text #1
  51. ID                                       : 3
  52. Format                                   : UTF-8
  53. Codec ID                                 : S_TEXT/UTF8
  54. Codec ID/Info                            : UTF-8 Plain Text
  55. Duration                                 : 1 h 24 min
  56. Bit rate                                 : 42 b/s
  57. Count of elements                        : 942
  58. Stream size                              : 26.4 KiB (0%)
  59. Language                                 : English
  60. Default                                  : No
  61. Forced                                   : No

  62. Text #2
  63. ID                                       : 4
  64. Format                                   : UTF-8
  65. Codec ID                                 : S_TEXT/UTF8
  66. Codec ID/Info                            : UTF-8 Plain Text
  67. Duration                                 : 1 h 25 min
  68. Bit rate                                 : 47 b/s
  69. Count of elements                        : 1123
  70. Stream size                              : 29.6 KiB (0%)
  71. Title                                    : SDH
  72. Language                                 : English
  73. Default                                  : No
  74. Forced                                   : No
复制代码


精彩剧照




蓝光高清网提示您 点击下方附件名称 马上开始下载



温馨提示:
本站资源优先使用迅雷下载,迅雷会员下载,速度基本可以跑满宽带
如果遇到无资源或者版权问题无法下载,推荐使用115网盘离线下载(点击查看115网盘离线下载教程


  • 该资源需要您回复以后 刷新网页进行下载操作

  • 1、Love.Comes.Softly.2010.1080p.AMZN.WEBRip.DD2.0.x264-QOQ.torrent 85KB 已下载 0 次

加入蓝光高清网VIP会员  无限制下载本站所有资源---点此加入

资源下载、资源播放、字幕使用、无法下载等常见问题---点这里

回复

使用道具 举报

懒得打字嘛,点击右侧快捷回复
高级模式
B Color Image Link Quote Code Smilies 上传

本版积分规则

关注0

粉丝0

帖子69462

发布主题
最新电影 论坛
本期活动
联系我们
点击这里联系客服

服务时间:
周一到周日8:00-23:30

  • 打开微信扫一扫
    关注公众号

  • 手机QQ扫一扫
    添加客服

Archiver手机版蓝光高清网 ( 渝ICP备18006373号-2 )|网站地图

Powered by Discuz! X3.4  © 2001-2013 Comsenz Inc.