[喜剧片] 维京高中生 Vikes.2017.1080p.AMZN.WEBRip.DD5.1.x264-AJP69 5.64GB

[复制链接]
蓝鸟 发表于 2019-12-5 18:52:45 | 显示全部楼层 |阅读模式 打印 上一主题 下一主题
维京高中生 Vikes.2017.1080p.AMZN.WEBRip.DD5.1.x264-AJP69 5.64GB-1.png

译  名 维京高中生
片  名 vikes
年  代 2017
产  地 美国
类  别 喜剧 / 爱情
语  言 英语
上映日期 2017-08-25(美国)
IMDb评分  5.6/10 from 61 users
IMDb链接  https://www.imdb.com/title/tt5578604
豆瓣评分 0/10 from 0 users
豆瓣链接 https://movie.douban.com/subject/27607274/
导  演 Tenney Fairchild
编  剧 Tenney Fairchild
主  演 Aidan Alexander
       西德妮·斯维尼 Sydney Sweeney
       诺亚·芒克 Noah Munck
       Bridget Albaugh
       杰西卡·艾莉 Jessica Amlee
       霍普·班克斯 Hope Banks
       Nicolas Cantu
       尼古拉斯·唐斯 Nicholas Downs


标  签 美国 | 青春 | 喜剧 | 西德妮·斯维尼 | 爱情 | 待下载

简  介  

  High school kid, Thorvald, influenced by a girl he likes, Ida, campaigns to change his school"s mascot, the Viking, to something less offensive to the Scandinavian community. It"s a love story.


该资源信息参数
  1. Video
  2. ID                                       : 1
  3. Format                                   : AVC
  4. Format/Info                              : Advanced Video Codec
  5. Format profile                           : High@L4
  6. Format settings                          : CABAC / 4 Ref Frames
  7. Format settings, CABAC                   : Yes
  8. Format settings, Reference frames        : 4 frames
  9. Codec ID                                 : V_MPEG4/ISO/AVC
  10. Duration                                 : 1 h 26 min
  11. Bit rate                                 : 8 739 kb/s
  12. Width                                    : 1 920 pixels
  13. Height                                   : 1 080 pixels
  14. Display aspect ratio                     : 16:9
  15. Frame rate mode                          : Constant
  16. Frame rate                               : 23.976 (24000/1001) FPS
  17. Color space                              : YUV
  18. Chroma subsampling                       : 4:2:0
  19. Bit depth                                : 8 bits
  20. Scan type                                : Progressive
  21. Bits/(Pixel*Frame)                       : 0.176
  22. Stream size                              : 5.25 GiB (93%)
  23. Default                                  : Yes
  24. Forced                                   : No
  25. Color range                              : Limited
  26. Color primaries                          : BT.709
  27. Transfer characteristics                 : BT.709
  28. Matrix coefficients                      : BT.709

  29. Audio
  30. ID                                       : 2
  31. Format                                   : E-AC-3
  32. Format/Info                              : Enhanced AC-3
  33. Commercial name                          : Dolby Digital Plus
  34. Codec ID                                 : A_EAC3
  35. Duration                                 : 1 h 26 min
  36. Bit rate mode                            : Constant
  37. Bit rate                                 : 640 kb/s
  38. Channel(s)                               : 6 channels
  39. Channel layout                           : L R C LFE Ls Rs
  40. Sampling rate                            : 48.0 kHz
  41. Frame rate                               : 31.250 FPS (1536 SPF)
  42. Compression mode                         : Lossy
  43. Stream size                              : 394 MiB (7%)
  44. Language                                 : English
  45. Service kind                             : Complete Main
  46. Default                                  : Yes
  47. Forced                                   : No

  48. Text
  49. ID                                       : 3
  50. Format                                   : UTF-8
  51. Codec ID                                 : S_TEXT/UTF8
  52. Codec ID/Info                            : UTF-8 Plain Text
  53. Duration                                 : 1 h 23 min
  54. Bit rate                                 : 74 b/s
  55. Count of elements                        : 1707
  56. Stream size                              : 45.7 KiB (0%)
  57. Title                                    : SDH
  58. Language                                 : English
  59. Default                                  : No
  60. Forced                                   : No
复制代码


精彩剧照

维京高中生 Vikes.2017.1080p.AMZN.WEBRip.DD5.1.x264-AJP69 5.64GB-3.png 维京高中生 Vikes.2017.1080p.AMZN.WEBRip.DD5.1.x264-AJP69 5.64GB-4.png


蓝光高清网提示您 点击下方附件名称 马上开始下载

Vikes.2017.1080p.AMZN.WEBRip.DD5.1.x264-AJP69.torrent 
         (56.94 KB    阅读权限: 0)
加入蓝光高清网VIP会员  无限制下载本站所有资源---点这里

资源下载、资源播放、字幕使用、无法下载等常见问题---点这里
回复

使用道具 举报

精彩评论60

开辟 发表于 2019-12-5 19:46:33 | 显示全部楼层
相当不错,感谢无私分享精神!
回复

使用道具 举报

zhaowei4510 发表于 2019-12-5 20:42:08 | 显示全部楼层
谢谢楼主分享
回复

使用道具 举报

蓝色冰雨 发表于 2019-12-5 21:37:50 | 显示全部楼层
维京高中生 Vikes.2017.1080p.AMZN.WEBRip.DD5.1.x264-AJP69 5.64GB
回复

使用道具 举报

fjfzxdc 发表于 2019-12-6 06:10:32 | 显示全部楼层
找了好久 终于找到了  谢谢分享
回复

使用道具 举报

wmteo97 发表于 2019-12-6 07:38:05 | 显示全部楼层
找了好久 终于找到了  谢谢分享
回复

使用道具 举报

kuaizio 发表于 2019-12-6 08:03:52 | 显示全部楼层
希望蓝光高清网越来越好
回复

使用道具 举报

dz5.0 发表于 2019-12-6 08:50:39 | 显示全部楼层
哈哈 谢谢 谢谢
回复

使用道具 举报

cngb99 发表于 2019-12-6 09:21:10 | 显示全部楼层
楼主幸苦了
回复

使用道具 举报

风的追忆 发表于 2019-12-6 09:21:10 | 显示全部楼层
lkjlsdfadfsfasasdfasfa
回复

使用道具 举报

您需要登录后才可以回帖 登录 | 立即注册

本版积分规则

关注0

粉丝1

帖子86435

发布主题
最新电影 论坛
本期活动
联系我们
点击这里联系客服

服务时间:
周一到周日8:00-23:30

  • 打开微信扫一扫
    关注公众号

  • 手机QQ扫一扫
    添加客服

手机版蓝光高清网 |网站地图

Powered by Discuz! X3.4 Licensed  © 2001-2013 Comsenz Inc.