[惊悚片] 少年福尔摩斯/出神入化 Young.Sherlock.Holmes.1985.1080p.WEBRip.x264-RARBG 2.08GB

[复制链接]
蓝鸟VIP会员 永久VIP 发表于 2019-12-5 18:54:24 | 显示全部楼层 |阅读模式 打印 上一主题 下一主题

马上注册,轻松下载,海量资源,让你轻松玩转社区。

您需要 登录 才可以下载或查看,没有帐号?立即注册

x


译  名 少年福尔摩斯 / 出神入化 / 小福尔摩斯 / 年轻的福尔摩斯 / 魔笛追魂
片  名 Young Sherlock Holmes
年  代 1985
产  地 美国
类  别 剧情 / 悬疑 / 冒险
语  言 英语
上映日期 1985-12-04(美国)
IMDb评分  6.8/10 from 17908 users
IMDb链接  https://www.imdb.com/title/tt0090357
豆瓣评分 6.7/10 from 1203 users
豆瓣链接 https://movie.douban.com/subject/1296039/
片  长 109 分钟
导  演 巴瑞·莱文森 Barry Levinson
编  剧 阿瑟·柯南·道尔 Arthur Conan Doyle / 克里斯·哥伦布 Chris Columbus
主  演 尼古拉斯·罗尔 Nicholas Rowe
       艾伦·考克斯 Alan Cox
       索菲娅·沃德 Sophie Ward
       安东尼·希金斯 Anthony Higgins
       苏珊·弗利特伍德 Susan Fleetwood
       弗雷迪·琼斯 Freddie Jones
       奈杰尔·斯托克 Nigel Stock
       罗杰·阿什顿-格里菲斯 Roger Ashton-Griffiths


标  签 少年福尔摩斯 | 悬疑 | 推理 | 美国 | 英国 | 福尔摩斯 | 美国电影 | 犯罪

简  介  

  19世纪,年幼的福尔摩斯和年幼的华生医生在同一所寄宿学校就读。福尔摩斯在幼年就表现出了非凡的观察和逻辑推理能力,这让他在学校里很受同学注目。他与华生还有他暗恋的姑娘Elizabeth Hardy一起,在一次偶发的自杀案中抽丝剥茧逐渐走入伦敦的黑巷中破获了惊人的罪案。

获奖情况  

  第58届奥斯卡金像奖(1986)
  最佳视觉效果(提名) 丹尼斯·穆伦 / 戴夫·埃伦 / 基特·韦斯特 / John Ellis


该资源信息参数
  1. Video
  2. ID                                       : 1
  3. Format                                   : AVC
  4. Format/Info                              : Advanced Video Codec
  5. Format profile                           : High@L4
  6. Format settings                          : CABAC / 4 Ref Frames
  7. Format settings, CABAC                   : Yes
  8. Format settings, Reference frames        : 4 frames
  9. Codec ID                                 : avc1
  10. Codec ID/Info                            : Advanced Video Coding
  11. Duration                                 : 1 h 48 min
  12. Source duration                          : 1 h 48 min
  13. Bit rate                                 : 2 500 kb/s
  14. Width                                    : 1 920 pixels
  15. Height                                   : 1 080 pixels
  16. Display aspect ratio                     : 16:9
  17. Frame rate mode                          : Constant
  18. Frame rate                               : 23.976 (23976/1000) FPS
  19. Color space                              : YUV
  20. Chroma subsampling                       : 4:2:0
  21. Bit depth                                : 8 bits
  22. Scan type                                : Progressive
  23. Bits/(Pixel*Frame)                       : 0.050
  24. Stream size                              : 1.90 GiB (92%)
  25. Source stream size                       : 1.90 GiB (92%)
  26. Writing library                          : x264 core 152 r2851M ba24899
  27. Encoding settings                        : cabac=1 / ref=4 / deblock=1:-1:-1 / analyse=0x3:0x113 / me=umh / subme=9 / psy=1 / psy_rd=1.00:0.15 / mixed_ref=1 / me_range=24 / chroma_me=1 / trellis=2 / 8x8dct=1 / cqm=0 / deadzone=21,11 / fast_pskip=1 / chroma_qp_offset=-3 / threads=16 / lookahead_threads=4 / sliced_threads=0 / nr=0 / decimate=1 / interlaced=0 / bluray_compat=0 / constrained_intra=0 / bframes=3 / b_pyramid=2 / b_adapt=2 / b_bias=0 / direct=3 / weightb=1 / open_gop=0 / weightp=2 / keyint=250 / keyint_min=25 / scenecut=40 / intra_refresh=0 / rc_lookahead=50 / rc=2pass / mbtree=1 / bitrate=2500 / ratetol=1.0 / qcomp=0.60 / qpmin=0 / qpmax=69 / qpstep=4 / cplxblur=20.0 / qblur=0.5 / vbv_maxrate=31250 / vbv_bufsize=31250 / nal_hrd=none / filler=0 / ip_ratio=1.40 / aq=3:1.00
  28. Encoded date                             : UTC 2019-12-05 04:17:49
  29. Tagged date                              : UTC 2019-12-05 04:17:49
  30. Codec configuration box                  : avcC

  31. Audio
  32. ID                                       : 2
  33. Format                                   : AAC LC
  34. Format/Info                              : Advanced Audio Codec Low Complexity
  35. Codec ID                                 : mp4a-40-2
  36. Duration                                 : 1 h 48 min
  37. Duration_LastFrame                       : -11 ms
  38. Bit rate mode                            : Constant
  39. Bit rate                                 : 224 kb/s
  40. Channel(s)                               : 6 channels
  41. Channel layout                           : C L R Ls Rs LFE
  42. Sampling rate                            : 48.0 kHz
  43. Frame rate                               : 46.875 FPS (1024 SPF)
  44. Compression mode                         : Lossy
  45. Stream size                              : 174 MiB (8%)
  46. Language                                 : English
  47. Default                                  : Yes
  48. Alternate group                          : 1
  49. Encoded date                             : UTC 2019-12-05 04:17:49
  50. Tagged date                              : UTC 2019-12-05 04:17:49
复制代码


精彩剧照




蓝光高清网提示您 点击下方附件名称 马上开始下载



温馨提示:
本站资源优先使用迅雷下载,迅雷会员下载,速度基本可以跑满宽带
如果遇到无资源或者版权问题无法下载,推荐使用115网盘离线下载(点击查看115网盘离线下载教程


  • 该资源需要您回复以后 刷新网页进行下载操作

  • 1、Young.Sherlock.Holmes.1985.1080p.WEBRip.x264-RARBG.torrent 21KB 已下载 0 次

加入蓝光高清网VIP会员  无限制下载本站所有资源---点此加入

资源下载、资源播放、字幕使用、无法下载等常见问题---点这里

回复

使用道具 举报

精彩评论81

音乐虫虫andy 发表于 2019-12-5 18:55:45 | 显示全部楼层
支持一下

加入蓝光高清网VIP会员  无限制下载本站所有资源---点此加入

资源下载、资源播放、字幕使用、无法下载等常见问题---点这里

回复

使用道具 举报

daph8 发表于 2019-12-5 19:05:56 | 显示全部楼层
哈哈 谢谢 谢谢

加入蓝光高清网VIP会员  无限制下载本站所有资源---点此加入

资源下载、资源播放、字幕使用、无法下载等常见问题---点这里

回复

使用道具 举报

ienovo 发表于 2019-12-5 19:21:09 | 显示全部楼层
不管怎么说就是支持,感谢版主的无私付出

加入蓝光高清网VIP会员  无限制下载本站所有资源---点此加入

资源下载、资源播放、字幕使用、无法下载等常见问题---点这里

回复

使用道具 举报

panqinlai 发表于 2019-12-5 20:01:41 | 显示全部楼层
楼主幸苦了

加入蓝光高清网VIP会员  无限制下载本站所有资源---点此加入

资源下载、资源播放、字幕使用、无法下载等常见问题---点这里

回复

使用道具 举报

yousihai 发表于 2019-12-5 21:27:48 | 显示全部楼层
好电影 谢谢楼主分享

加入蓝光高清网VIP会员  无限制下载本站所有资源---点此加入

资源下载、资源播放、字幕使用、无法下载等常见问题---点这里

回复

使用道具 举报

tstella 发表于 2019-12-5 22:58:34 | 显示全部楼层
谢谢  下载了  3Q

加入蓝光高清网VIP会员  无限制下载本站所有资源---点此加入

资源下载、资源播放、字幕使用、无法下载等常见问题---点这里

回复

使用道具 举报

oipower 发表于 2019-12-6 07:06:44 | 显示全部楼层
刷一波高清币,嘿嘿

加入蓝光高清网VIP会员  无限制下载本站所有资源---点此加入

资源下载、资源播放、字幕使用、无法下载等常见问题---点这里

回复

使用道具 举报

yike 发表于 2019-12-6 07:43:10 | 显示全部楼层
谢谢楼主分享

加入蓝光高清网VIP会员  无限制下载本站所有资源---点此加入

资源下载、资源播放、字幕使用、无法下载等常见问题---点这里

回复

使用道具 举报

85383658 发表于 2019-12-6 08:14:06 | 显示全部楼层
楼主发贴辛苦了,谢谢楼主分享!

加入蓝光高清网VIP会员  无限制下载本站所有资源---点此加入

资源下载、资源播放、字幕使用、无法下载等常见问题---点这里

回复

使用道具 举报

懒得打字嘛,点击右侧快捷回复
高级模式
B Color Image Link Quote Code Smilies 上传

本版积分规则

关注0

粉丝0

帖子71863

发布主题
最新电影 论坛
本期活动
联系我们
点击这里联系客服

服务时间:
周一到周日8:00-23:30

  • 打开微信扫一扫
    关注公众号

  • 手机QQ扫一扫
    添加客服

Archiver手机版蓝光高清网 ( 渝ICP备18006373号-2 )|网站地图

Powered by Discuz! X3.4  © 2001-2013 Comsenz Inc.