热血警探
4K HDR 
8.3
  • 年代: 2007年
  • 国家/地区: 美国
  • 类型: 喜剧 动作 
  • 导演: 埃德加·赖特
  • 音轨: DTS:X 7.1 
  • 时长: 121分钟
  • 主演:西蒙·佩吉 / 尼克·弗罗斯特 / 马丁·弗瑞曼 / 比尔·奈伊 / 提摩西·道尔顿
特别声明:本站提供的所有高清电影作品均是在网上搜集,任何涉及商业盈利目的均不得使用,否则产生的一切后果将由您自己承担!本站将不对本站的任何内容负任何法律责任!该下载内容仅做宽带测试使用,请在下载后24小时内删除。请购买正版! 本站所有资源均由网上收集而来,版权归原影音公司所有,如果侵犯了你的权益,请通知我们,我们会及时删除侵权内容.

热血警探 Hot.Fuzz.2007.2160p.UHD.BluRay.X265.10bit.HDR10Plus.DTS-X.7.1-JustWatch 27.70GB

[复制链接]
蓝鸟 发表于 2019-12-9 09:39:32 | 显示全部楼层 |阅读模式 打印 上一主题 下一主题
简  介  
  F  g/ [( T+ L, N9 E! W
  ?2 s- X! r4 N; x7 \! g; q
  尼古拉斯?安奇尔(西蒙?佩吉Simon Pegg 饰)在伦敦担任高级巡警,抓贼破案似乎是他最大的乐趣。为此他成为警局中最敬业最能干的警员。但这却招致了警长的妒嫉,可怜的尼古拉斯被调至一个偏僻平静的小镇当警察。
0 t  a) u4 W; j$ a$ w- u( f  小镇已经几十年没有过恶性犯罪事件。尼古拉斯在那里过得相当郁闷 ,他觉得自己的擒贼本领没有施展空间。更令他烦恼的是,镇里警察局局长儿子丹尼?巴特曼(尼克?弗罗斯特 Nick Frost 饰)也来凑热闹,成为他的搭档。这个新搭档麻烦至极,整天询问大城市的警员经历。正在尼古拉斯烦心于镇里鸡毛蒜皮的事务和身边的苯搭档时,镇里却发生了一桩案件,让尼古拉斯嗅到了大展拳脚的机会,惊心动魄的战役开始了。8 }- I) h: l8 K1 G& V3 M

* h1 S& C$ ^' x/ E0 B' v影片参数% W5 n) E& l* K3 h" D4 B0 w
& n8 \6 ^, \% Z
  • Video
  • ID                                       : 1
  • Format                                   : HEVC
  • Format/Info                              : High Efficiency Video Coding
  • Format profile                           : Main High@L4@High
  • HDR format                               : SMPTE ST 2094 App 4, Version 1, HDR10+ Profile B compatible
  • Codec ID                                 : V_MPEGH/ISO/HEVC
  • Duration                                 : 2 h 0 min
  • Bit rate                                 : 25.4 Mb/s
  • Width                                    : 3 840 pixels
  • Height                                   : 2 160 pixels
  • Display aspect ratio                     : 16:9
  • Frame rate mode                          : Constant
  • Frame rate                               : 23.976 (24000/1001) FPS
  • Color space                              : YUV
  • Chroma subsampling                       : 4:2:0 (Type 2)
  • Bit depth                                : 10 bits
  • Bits/(Pixel*Frame)                       : 0.128
  • Stream size                              : 21.5 GiB (78%)
  • Writing library                          : x265 3.19c5c9cef2a86:[Windows][MSVC 1900][64 bit] 10bit
  • Encoding settings                        : cpuid=1111039 / frame-threads=6 / numa-pools=16,16 / wpp / no-pmode / no-pme / no-psnr / no-ssim / log-level=2 / input-csp=1 / input-res=3840x2160 / interlace=0 / total-frames=173805 / level-idc=51 / high-tier=1 / uhd-bd=0 / ref=4 / no-allow-non-conformance / repeat-headers / annexb / aud / hrd / info / hash=0 / no-temporal-layers / no-open-gop / min-keyint=24 / keyint=240 / gop-lookahead=0 / bframes=4 / b-adapt=2 / b-pyramid / bframe-bias=0 / rc-lookahead=25 / lookahead-slices=4 / scenecut=40 / radl=0 / no-splice / no-intra-refresh / ctu=64 / min-cu-size=8 / rect / no-amp / max-tu-size=32 / tu-inter-depth=1 / tu-intra-depth=1 / limit-tu=0 / rdoq-level=2 / dynamic-rd=0.00 / no-ssim-rd / signhide / no-tskip / nr-intra=0 / nr-inter=0 / no-constrained-intra / no-strong-intra-smoothing / max-merge=3 / limit-refs=3 / limit-modes / me=3 / subme=3 / merange=57 / temporal-mvp / weightp / no-weightb / no-analyze-src-pics / deblock=-3:-3 / no-sao / no-sao-non-deblock / rd=4 / no-early-skip / rskip / no-fast-intra / no-tskip-fast / no-cu-lossless / no-b-intra / no-splitrd-skip / rdpenalty=0 / psy-rd=2.00 / psy-rdoq=1.00 / no-rd-refine / no-lossless / cbqpoffs=0 / crqpoffs=0 / rc=crf / crf=14.5 / qcomp=0.60 / qpstep=4 / stats-write=0 / stats-read=0 / vbv-maxrate=160000 / vbv-bufsize=160000 / vbv-init=0.9 / crf-max=0.0 / crf-min=0.0 / ipratio=1.40 / pbratio=1.30 / aq-mode=2 / aq-strength=1.00 / cutree / zone-count=0 / no-strict-cbr / qg-size=32 / no-rc-grain / qpmax=69 / qpmin=0 / no-const-vbv / sar=1 / overscan=0 / videoformat=5 / range=0 / colorprim=9 / transfer=16 / colormatrix=9 / chromaloc=1 / chromaloc-top=2 / chromaloc-bottom=2 / display-window=0 / master-display=G(13250,34500)B(7500,3000)R(34000,16000)WP(15635,16450)L(10000000,50)cll=960,336 / min-luma=0 / max-luma=1023 / log2-max-poc-lsb=8 / vui-timing-info / vui-hrd-info / slices=1 / no-opt-qp-pps / no-opt-ref-list-length-pps / no-multi-pass-opt-rps / scenecut-bias=0.05 / no-opt-cu-delta-qp / no-aq-motion / hdr / hdr-opt / dhdr10-opt / no-idr-recovery-sei / analysis-reuse-level=5 / scale-factor=0 / refine-intra=0 / refine-inter=0 / refine-mv=0 / refine-ctu-distortion=0 / no-limit-sao / ctu-info=0 / no-lowpass-dct / refine-analysis-type=0 / copy-pic=1 / max-ausize-factor=1.0 / no-dynamic-refine / no-single-sei / no-hevc-aq / no-svt / no-field / qp-adaptation-range=1.00
  • Default                                  : Yes
  • Forced                                   : No
  • Color range                              : Limited
  • Color primaries                          : BT.2020
  • Transfer characteristics                 : PQ
  • Matrix coefficients                      : BT.2020 non-constant
  • Mastering display color primaries        : Display P3
  • Mastering display luminance              : min: 0.0050 cd/m2, max: 1000 cd/m2
  • Maximum Content Light Level              : 960 cd/m2
  • Maximum Frame-Average Light Level        : 336 cd/m2
  • Audio #1
  • ID                                       : 2
  • Format                                   : DTS XLL X
  • Format/Info                              : Digital Theater Systems
  • Commercial name                          : DTS-HD Master Audio
  • Codec ID                                 : A_DTS
  • Duration                                 : 2 h 0 min
  • Bit rate mode                            : Variable
  • Bit rate                                 : 5 998 kb/s
  • Channel(s)                               : 8 channels
  • Channel(s)_Original                      : Object Based
  • Channel layout                           : Object Based
  • Sampling rate                            : 48.0 kHz
  • Frame rate                               : 93.750 FPS (512 SPF)
  • Bit depth                                : 24 bits
  • Stream size                              : 5.06 GiB (18%)
  • Title                                    : Surround 7.1
  • Language                                 : English
  • Default                                  : Yes
  • Forced                                   : No
  • Audio #2
  • ID                                       : 3
  • Format                                   : AC-3
  • Format/Info                              : Audio Coding 3
  • Commercial name                          : Dolby Digital
  • Codec ID                                 : A_AC3
  • Duration                                 : 2 h 0 min
  • Bit rate mode                            : Constant
  • Bit rate                                 : 192 kb/s
  • Channel(s)                               : 2 channels
  • Channel layout                           : L R
  • Sampling rate                            : 48.0 kHz
  • Frame rate                               : 31.250 FPS (1536 SPF)
  • Bit depth                                : 16 bits
  • Compression mode                         : Lossy
  • Stream size                              : 166 MiB (1%)
  • Title                                    : Stereo
  • Language                                 : English
  • Service kind                             : Complete Main
  • Default                                  : No
  • Forced                                   : No
  • Audio #3
  • ID                                       : 4
  • Format                                   : AC-3
  • Format/Info                              : Audio Coding 3
  • Commercial name                          : Dolby Digital
  • Codec ID                                 : A_AC3
  • Duration                                 : 2 h 0 min
  • Bit rate mode                            : Constant
  • Bit rate                                 : 192 kb/s
  • Channel(s)                               : 2 channels
  • Channel layout                           : L R
  • Sampling rate                            : 48.0 kHz
  • Frame rate                               : 31.250 FPS (1536 SPF)
  • Bit depth                                : 16 bits
  • Compression mode                         : Lossy
  • Stream size                              : 166 MiB (1%)
  • Title                                    : Stereo
  • Language                                 : English
  • Service kind                             : Complete Main
  • Default                                  : No
  • Forced                                   : No
  • Audio #4
  • ID                                       : 5
  • Format                                   : AC-3
  • Format/Info                              : Audio Coding 3
  • Commercial name                          : Dolby Digital
  • Codec ID                                 : A_AC3
  • Duration                                 : 2 h 0 min
  • Bit rate mode                            : Constant
  • Bit rate                                 : 192 kb/s
  • Channel(s)                               : 2 channels
  • Channel layout                           : L R
  • Sampling rate                            : 48.0 kHz
  • Frame rate                               : 31.250 FPS (1536 SPF)
  • Bit depth                                : 16 bits
  • Compression mode                         : Lossy
  • Stream size                              : 166 MiB (1%)
  • Title                                    : Stereo
  • Language                                 : English
  • Service kind                             : Complete Main
  • Default                                  : No
  • Forced                                   : No
  • Audio #5
  • ID                                       : 6
  • Format                                   : AC-3
  • Format/Info                              : Audio Coding 3
  • Commercial name                          : Dolby Digital
  • Codec ID                                 : A_AC3
  • Duration                                 : 2 h 0 min
  • Bit rate mode                            : Constant
  • Bit rate                                 : 192 kb/s
  • Channel(s)                               : 2 channels
  • Channel layout                           : L R
  • Sampling rate                            : 48.0 kHz
  • Frame rate                               : 31.250 FPS (1536 SPF)
  • Bit depth                                : 16 bits
  • Compression mode                         : Lossy
  • Stream size                              : 166 MiB (1%)
  • Title                                    : Stereo
  • Language                                 : English
  • Service kind                             : Complete Main
  • Default                                  : No
  • Forced                                   : No
  • Audio #6
  • ID                                       : 7
  • Format                                   : AC-3
  • Format/Info                              : Audio Coding 3
  • Commercial name                          : Dolby Digital
  • Codec ID                                 : A_AC3
  • Duration                                 : 2 h 0 min
  • Bit rate mode                            : Constant
  • Bit rate                                 : 192 kb/s
  • Channel(s)                               : 2 channels
  • Channel layout                           : L R
  • Sampling rate                            : 48.0 kHz
  • Frame rate                               : 31.250 FPS (1536 SPF)
  • Bit depth                                : 16 bits
  • Compression mode                         : Lossy
  • Stream size                              : 166 MiB (1%)
  • Title                                    : Stereo
  • Language                                 : English
  • Service kind                             : Complete Main
  • Default                                  : No
  • Forced                                   : No
    # {1 K5 o" N, W- |- j8 `" w. C* N
  ?; _, S9 |. J/ V: @
5 h) L% e2 L  Y. X$ ~
! L1 @8 l0 j' l; J$ Q. Z: k$ Y
精彩剧照
- m! ]5 _& c9 }! S 热血警探 Hot.Fuzz.2007.2160p.UHD.BluRay.X265.10bit.HDR10Plus.DTS-X.7.1-JustWatch 27.70GB-1.png 热血警探 Hot.Fuzz.2007.2160p.UHD.BluRay.X265.10bit.HDR10Plus.DTS-X.7.1-JustWatch 27.70GB-2.png 热血警探 Hot.Fuzz.2007.2160p.UHD.BluRay.X265.10bit.HDR10Plus.DTS-X.7.1-JustWatch 27.70GB-3.png
. |) |$ @8 I, A& s, u
' B* u- H; t4 w, a6 E0 ~# m0 m: @
4 i) S$ N( ], _, h2 e! U& |& n$ O. O6 A

4 P& a/ D4 K7 z6 _
0 p6 a% l% ?3 q- G  w; Y
4 O9 Q5 k6 m( I蓝光高清网提示您  点击下方附件名称  马上开始下载/ z! x6 D9 d6 N, n0 P3 I

+ r. ^+ L/ R: s. ~4 h% }1 ]5 T" r" B$ n4 D- X% n( z7 q
Hot.Fuzz.2007.2160p.UHD.BluRay.X265.10bit.HDR10Plus.DTS-X.7.1-JustWatch.torrent 
         (70.01 KB    阅读权限: 0)
加入蓝光高清网VIP会员  无限制下载本站所有资源---点这里

资源下载、资源播放、字幕使用、无法下载等常见问题---点这里
回复

使用道具 举报

精彩评论32

xgyl 发表于 2019-12-9 09:55:06 | 显示全部楼层
好好 学习了 确实不错
回复

使用道具 举报

kof97 发表于 2019-12-9 10:00:07 | 显示全部楼层
好网站 希望越来越好
回复

使用道具 举报

55378739 发表于 2019-12-9 12:47:52 | 显示全部楼层
谢谢版主 希望坚持下去 好资源
回复

使用道具 举报

风火行 发表于 2019-12-9 13:03:13 | 显示全部楼层
好电影 谢谢楼主分享
回复

使用道具 举报

deity1525 发表于 2019-12-9 13:08:14 | 显示全部楼层
不错不错,楼主您辛苦了。。。
回复

使用道具 举报

kitiun 发表于 2019-12-9 13:23:33 | 显示全部楼层
找了好久 终于找到了  谢谢分享
回复

使用道具 举报

飞扬色彩 发表于 2019-12-9 13:38:36 | 显示全部楼层
相当不错,感谢无私分享精神!
回复

使用道具 举报

amar 发表于 2019-12-9 13:48:39 | 显示全部楼层
sssssssssssssssssss
回复

使用道具 举报

北京夜未央 发表于 2019-12-9 14:08:45 | 显示全部楼层
sfweoeroiqwetasd!
回复

使用道具 举报

您需要登录后才可以回帖 登录 | 立即注册

本版积分规则

关注0

粉丝1

帖子86435

发布主题
最新电影 论坛
本期活动
联系我们
点击这里联系客服

服务时间:
周一到周日8:00-23:30

  • 打开微信扫一扫
    关注公众号

  • 手机QQ扫一扫
    添加客服

手机版蓝光高清网 |网站地图

Powered by Discuz! X3.4 Licensed  © 2001-2013 Comsenz Inc.