[BBC纪录片] 七个世界一个星球 Seven.Worlds.One.Planet.S01.2160p.BluRay.HEVC.TrueHD.7.1.Atmos-HDBEE 191.71GB

[复制链接]
蓝鸟 发表于 2019-12-10 09:14:25 | 显示全部楼层 |阅读模式 打印 上一主题 下一主题
七个世界一个星球 Seven.Worlds.One.Planet.S01.2160p.BluRay.HEVC.TrueHD.7.1.Atmos-HDBEE 191.71GB-1.png


译  名 七个世界,一个星球 / One Planet: Seven Worlds / 一颗星球:七个世界 / 七个世界,一颗星球
片  名 Seven Worlds, One Planet
年  代 2019
产  地 英国
类  别 纪录片
语  言 英语
上映日期 2019-10-27(英国) / 2019-10-28(中国大陆)
IMDb评分  9.6/10 from 994 users
IMDb链接  https://www.imdb.com/title/tt9805708
豆瓣评分 9.8/10 from 7623 users
豆瓣链接 https://movie.douban.com/subject/33387353/
集  数 7
片  长 60分钟
导  演 弗雷迪·德瓦斯 Fredi Devas / 艾玛·纳珀 Emma Napper / 查登·亨特 Chadden Hunter
主  演 戴维·阿滕伯勒 David Attenborough


标  签 纪录片 | BBC纪录片 | BBC | 自然 | 保护地球 | 英国 | 动物 | 2019

简  介  

  数百万年前,不可思议的神奇力量将地壳撕扯得支离破碎,由此创造出七个蔚为壮观的大陆。时光荏苒,每个大陆都孕育了别具特色的野生动物。
  从郁郁葱葱的南美洲丛林深处到冰雪覆盖的亚洲山峦之巅,从欧洲熙熙攘攘的都市到非洲的广袤平原,《七个世界 一个星球》将开启一次七大洲之旅,呈现匪夷所思的动物行为,讲述鲜为人知的动物故事。我们将探索在这七个世界,丰富多样的生命如何在地球上生长繁衍,同时揭示在人类主导的世界,动物们所面临的不同挑战。


影片参数

  • Video
  • ID                                       : 1
  • Format                                   : HEVC
  • Format/Info                              : High Efficiency Video Coding
  • Format profile                           : Main High@L4@High
  • HDR format                               : SMPTE ST 2086, HDR10 compatible
  • Codec ID                                 : V_MPEGH/ISO/HEVC
  • Duration                                 : 51 min 40 s
  • Bit rate                                 : 66.8 Mb/s
  • Width                                    : 3 840 pixels
  • Height                                   : 2 160 pixels
  • Display aspect ratio                     : 16:9
  • Frame rate mode                          : Constant
  • Frame rate                               : 23.976 (24000/1001) FPS
  • Color space                              : YUV
  • Chroma subsampling                       : 4:2:0 (Type 2)
  • Bit depth                                : 10 bits
  • Bits/(Pixel*Frame)                       : 0.336
  • Stream size                              : 24.1 GiB (88%)
  • Title                                    : Seven.Worlds.One.Planet.S01E03.South.America.2160p.BluRay.REMUX.HEVC.DTS-HD.MA.TrueHD.7.1.Atmos-FGT
  • Language                                 : English
  • Default                                  : No
  • Forced                                   : No
  • Color range                              : Limited
  • Color primaries                          : BT.2020
  • Transfer characteristics                 : PQ
  • Matrix coefficients                      : BT.2020 non-constant
  • Mastering display color primaries        : Display P3
  • Mastering display luminance              : min: 0.0050 cd/m2, max: 1000 cd/m2
  • Maximum Content Light Level              : 996 cd/m2
  • Maximum Frame-Average Light Level        : 445 cd/m2
  • Audio #1
  • ID                                       : 2
  • Format                                   : MLP FBA 16-ch
  • Format/Info                              : Meridian Lossless Packing FBA with 16-channel presentation
  • Commercial name                          : Dolby TrueHD with Dolby Atmos
  • Codec ID                                 : A_TRUEHD
  • Duration                                 : 51 min 39 s
  • Bit rate mode                            : Variable
  • Bit rate                                 : 4 358 kb/s
  • Maximum bit rate                         : 6 426 kb/s
  • Channel(s)                               : 8 channels
  • Channel layout                           : L R C LFE Ls Rs Lb Rb
  • Sampling rate                            : 48.0 kHz
  • Frame rate                               : 1 200.000 FPS (40 SPF)
  • Compression mode                         : Lossless
  • Stream size                              : 1.57 GiB (6%)
  • Title                                    : Seven.Worlds.One.Planet.S01E03.South.America.2160p.BluRay.REMUX.HEVC.DTS-HD.MA.TrueHD.7.1.Atmos-FGT
  • Language                                 : English
  • Default                                  : Yes
  • Forced                                   : No
  • Number of dynamic objects                : 11
  • Bed channel count                        : 1 channel
  • Bed channel configuration                : LFE
  • Audio #2
  • ID                                       : 3
  • Format                                   : DTS XLL
  • Format/Info                              : Digital Theater Systems
  • Commercial name                          : DTS-HD Master Audio
  • Codec ID                                 : A_DTS
  • Duration                                 : 51 min 39 s
  • Bit rate mode                            : Variable
  • Bit rate                                 : 4 365 kb/s
  • Channel(s)                               : 8 channels
  • Channel layout                           : C L R LFE Lb Rb Lss Rss
  • Sampling rate                            : 48.0 kHz
  • Frame rate                               : 93.750 FPS (512 SPF)
  • Bit depth                                : 24 bits
  • Compression mode                         : Lossless
  • Stream size                              : 1.58 GiB (6%)
  • Title                                    : Seven.Worlds.One.Planet.S01E03.South.America.2160p.BluRay.REMUX.HEVC.DTS-HD.MA.TrueHD.7.1.Atmos-FGT
  • Language                                 : English
  • Default                                  : No
  • Forced                                   : No
  • Audio #3
  • ID                                       : 4
  • Format                                   : AC-3
  • Format/Info                              : Audio Coding 3
  • Commercial name                          : Dolby Digital
  • Codec ID                                 : A_AC3
  • Duration                                 : 51 min 39 s
  • Bit rate mode                            : Constant
  • Bit rate                                 : 640 kb/s
  • Channel(s)                               : 6 channels
  • Channel layout                           : L R C LFE Ls Rs
  • Sampling rate                            : 48.0 kHz
  • Frame rate                               : 31.250 FPS (1536 SPF)
  • Bit depth                                : 16 bits
  • Compression mode                         : Lossy
  • Stream size                              : 237 MiB (1%)
  • Title                                    : Seven.Worlds.One.Planet.S01E03.South.America.2160p.BluRay.REMUX.HEVC.DTS-HD.MA.TrueHD.7.1.Atmos-FGT
  • Language                                 : English
  • Service kind                             : Complete Main
  • Default                                  : No
  • Forced                                   : No



精彩剧照

七个世界一个星球 Seven.Worlds.One.Planet.S01.2160p.BluRay.HEVC.TrueHD.7.1.Atmos-HDBEE 191.71GB-2.png 七个世界一个星球 Seven.Worlds.One.Planet.S01.2160p.BluRay.HEVC.TrueHD.7.1.Atmos-HDBEE 191.71GB-3.png 七个世界一个星球 Seven.Worlds.One.Planet.S01.2160p.BluRay.HEVC.TrueHD.7.1.Atmos-HDBEE 191.71GB-4.png


蓝光高清网提示您  点击下方附件名称  马上开始下载

多版本下载时请注意区分



七个世界一个星球 Seven.Worlds.One.Planet.S01.2160p.BluRay.HEVC.TrueHD.7.1.Atmos-HDBEE 191.71GB
Seven.Worlds.One.Planet.S01.2160p.BluRay.HEVC.TrueHD.7.1.Atmos-HDBEE.torrent 
         (490.65 KB    阅读权限: 20)
加入蓝光高清网VIP会员  无限制下载本站所有资源---点这里

资源下载、资源播放、字幕使用、无法下载等常见问题---点这里
回复

使用道具 举报

精彩评论48

liyiguo 发表于 2019-12-10 09:18:10 | 显示全部楼层
楼主幸苦了
回复

使用道具 举报

TejUKCJa 发表于 2019-12-10 10:08:38 | 显示全部楼层
找了好久 终于找到了  谢谢分享
回复

使用道具 举报

solomonkilling 发表于 2019-12-10 10:34:08 | 显示全部楼层
蓝光高清网是个好地方
回复

使用道具 举报

xiongy 发表于 2019-12-10 10:49:23 | 显示全部楼层
学习了,谢谢分享、、、
回复

使用道具 举报

ourwhite 发表于 2019-12-10 11:04:40 | 显示全部楼层
希望蓝光高清网越来越好
回复

使用道具 举报

john4734 发表于 2019-12-10 11:09:51 | 显示全部楼层
感谢楼主的无私分享!
回复

使用道具 举报

WXCB 发表于 2019-12-10 11:12:10 | 显示全部楼层
楼主发贴辛苦了,谢谢楼主分享!
回复

使用道具 举报

dhgfthygf 发表于 2019-12-10 12:00:28 | 显示全部楼层
楼主发贴辛苦了,谢谢楼主分享!
回复

使用道具 举报

alber1986 发表于 2019-12-10 12:25:36 | 显示全部楼层
七个世界一个星球 Seven.Worlds.One.Planet.S01.2160p.BluRay.HEVC.TrueHD.7.1.Atmos-HDBEE 191.71GB
回复

使用道具 举报

您需要登录后才可以回帖 登录 | 立即注册

本版积分规则

关注0

粉丝1

帖子86493

发布主题
最新电影 论坛
本期活动
联系我们
点击这里联系客服

服务时间:
周一到周日8:00-23:30

  • 打开微信扫一扫
    关注公众号

  • 手机QQ扫一扫
    添加客服

手机版蓝光高清网 |网站地图

Powered by Discuz! X3.4 Licensed  © 2001-2013 Comsenz Inc.